<?xml version="1.0" standalone="no"?>
<!DOCTYPE svg PUBLIC "-//W3C//DTD SVG 1.1//EN" "http://www.w3.org/Graphics/SVG/1.1/DTD/svg11.dtd" >
<!--
2013-9-30: Created.
-->
<svg>
<metadata>
Created by iconfont
</metadata>
<defs>

<font id="iconfont" horiz-adv-x="1024" >
  <font-face
    font-family="iconfont"
    font-weight="500"
    font-stretch="normal"
    units-per-em="1024"
    ascent="896"
    descent="-128"
  />
    <missing-glyph />
    
    <glyph glyph-name="News" unicode="&#58888;" d="M545.707-71.25300000000004a32 32 0 0 0-18.134 5.76l-295.68 204.16H32a32 32 0 0 0-32 32V597.3330000000001a32 32 0 0 0 32 32h200.107L527.573 833.707a32 32 0 0 0 50.134-26.24v-846.72a32 32 0 0 0-32-32zM64 202.66700000000003h178.133a32 32 0 0 0 18.134-5.76l253.44-175.574V746.667L260.267 570.88a32 32 0 0 0-18.134-5.76H64z m617.6-71.894A32 32 0 0 0 668.16 192a209.067 209.067 0 0 1 0 379.947 32 32 0 0 0 26.667 58.24 273.067 273.067 0 0 0 0-496.427 32 32 0 0 0-13.227-2.987zM700.587-29.013000000000034a32 32 0 0 0-8.107 64 359.893 359.893 0 0 1 0 695.893 32 32 0 0 0 16.427 61.867 423.893 423.893 0 0 0 0-819.627 31.573 31.573 0 0 0-8.32-2.133z"  horiz-adv-x="1024" />

    
    <glyph glyph-name="arrow-l" unicode="&#58941;" d="M352 384l384 384c12.8 12.8 12.8 31.999 0 44.799s-31.999 12.8-44.799 0l-403.2-403.2c-6.4-6.4-12.8-19.199-12.8-25.6s0-19.199 6.4-25.599l409.6-409.6c12.8-12.8 31.999-12.8 44.799 0s12.8 31.999 0 44.799l-384 390.399z"  horiz-adv-x="1024" />

    
    <glyph glyph-name="fabuicon" unicode="&#58913;" d="M904.669194 509.449153c-20.391423 0-36.893258-15.280008-36.893258-34.104749 0-4.024663 0-377.418862 0-377.418862 0-50.224892-44.052309-90.947362-98.386798-90.947362l-533.37789 0c-54.331419 0-98.384751 40.723493-98.384751 90.947362L137.626497 590.986191c0 50.224892 44.052309 90.947362 98.384751 90.947362 0 0 327.671854 0 332.052628 0 20.364817 0 36.893258 15.257495 36.893258 34.106796 0 18.824741-16.528442 34.104749-36.893258 34.104749-4.379751 0-356.647793 0-356.647793 0-81.513502 0-147.57815-61.072961-147.57815-136.422066l0-538.5374c0-75.350129 66.064648-136.422066 147.57815-136.422066L793.987373-61.236434c81.486896 0 147.57815 61.070914 147.57815 136.422066 0 0 0 396.132062 0 400.156726C941.565523 494.169145 925.037081 509.449153 904.669194 509.449153zM908.013359 832.184579c-14.20656 0-26.999934-5.568832-35.986609-14.465456l-0.044002 0.040932L373.802498 289.624563l-15.972786-73.846892c-0.673335-3.115967 2.298346-5.863545 5.669116-5.240351l79.861886 14.764262 497.701342 527.624862c9.945513 8.328689 16.192797 20.360723 16.192797 33.742499C957.255877 811.805436 935.209768 832.184579 908.013359 832.184579z"  horiz-adv-x="1024" />

    
    <glyph glyph-name="dacheng" unicode="&#58898;" d="M514.976-67.264c-247.04 0-448 201.024-448 448s200.96 448 448 448c87.872 0 172.928-25.408 246.016-73.472 14.72-9.728 18.816-29.632 9.152-44.352a32.192 32.192 0 0 0-44.352-9.152 381.12 381.12 0 0 1-210.752 62.976c-211.776 0-384-172.224-384-384s172.224-384 384-384 384 172.224 384 384c0 60.736-13.824 118.976-41.152 173.056a32 32 0 1 0 57.152 28.864c31.872-63.104 48-131.072 48-201.92-0.064-246.976-201.024-448-448.064-448zM513.504 166.336a32.256 32.256 0 0 0-22.656 9.344L308.96 357.696l-27.264-27.264a32 32 0 0 0-45.312 45.248l49.92 49.856a32 32 0 0 0 45.248 0l181.888-182.016 348.48 348.48a32 32 0 0 0 45.248-45.248l-371.136-371.136a31.68 31.68 0 0 0-22.528-9.28z"  horiz-adv-x="1024" />

    
    <glyph glyph-name="jiantou" unicode="&#59310;" d="M512 896C229.230592 896 0 666.769408 0 384s229.230592-512 512-512 512 229.230592 512 512S794.769408 896 512 896z m0-987.428864C249.427968-91.428864 36.571136 121.427968 36.571136 384S249.427968 859.428864 512 859.428864 987.428864 646.572032 987.428864 384 774.572032-91.428864 512-91.428864zM667.319296 382.88896c0.058368 0.631808 0.088064 1.258496 0.088064 1.875968 0 13.288448-12.519424 26.800128-15.12448 28.219392L461.7216 619.41248c-10.781696 11.67872-28.741632 11.157504-39.399424-0.387072-10.978304-11.892736-10.81856-31.347712-0.357376-42.68032l176.854016-191.58016-178.267136-193.110016c-10.461184-11.332608-10.620928-30.787584 0.357376-42.68032 10.657792-11.544576 28.618752-12.066816 39.399424-0.387072l188.708864 204.422144c3.591168 1.156096 19.654656 22.463488 19.672064 28.371968 0.003072 0.955392-0.413696 1.507328-1.370112 1.507328z"  horiz-adv-x="1024" />

    
    <glyph glyph-name="baojia" unicode="&#58880;" d="M790.872-60.184h-557.76c-61.6 0-111.552 49.944-111.552 111.552v557.76c0 61.608 49.952 111.56 111.552 111.56h94.56v55.776h64.208C416.064 809.672 460.512 832.232 512 832.232c51.48 0 95.936-22.56 120.08-55.776h64.24v-55.776h94.552c61.608 0 111.552-49.952 111.552-111.56v-557.76c0.008-61.6-49.936-111.544-111.552-111.544z m-139.44 791.76h-61.96c0 30.816-34.688 55.776-77.472 55.776-42.784 0-77.472-24.96-77.472-55.776H372.56V609.12h278.872V731.576z m206.12-122.448c0 30.792-35.856 66.672-66.68 66.672H696.32v-111.552H327.672V675.8h-94.56c-30.816 0-66.664-35.88-66.664-66.672v-557.76c0-30.8 35.856-66.68 66.664-66.68h557.76c30.824 0 66.68 35.896 66.68 66.68v557.76zM707.216 112.576H316.784c-15.392 0-27.888 7.056-27.888 22.456 0 15.392 12.496 22.432 27.888 22.432h390.44c15.392 0 27.888-7.04 27.888-22.432 0-15.4-12.504-22.456-27.896-22.456z m0 139.448H316.784c-15.392 0-27.888 7.048-27.888 22.448s12.496 22.44 27.888 22.44h390.44c15.392 0 27.888-7.04 27.888-22.44s-12.504-22.448-27.896-22.448z m0 139.44H316.784c-15.392 0-27.888 7.048-27.888 22.456 0 15.392 12.496 22.44 27.888 22.44h390.44c15.392 0 27.888-7.048 27.888-22.44 0-15.408-12.504-22.456-27.896-22.456z"  horiz-adv-x="1024" />

    
    <glyph glyph-name="gouwuche-copy" unicode="&#58881;" d="M336.879-4.835000000000036a50.548 50.548 0 1 1 103.452 0 50.548 50.548 0 1 1-103.452 0z m433.291 0a50.549 50.549 0 1 1 103.455 0 50.549 50.549 0 1 1-103.455 0z m92.928 139.044h-0.116l-496.037-1.825-15.79 1.701c-5.08 2.163-27.46 14.721-35.71 70.32L251.787 682.88a31.414 31.414 0 0 1-0.07 2.316c-3.672 51.243-25.151 80.299-42.523 95.65-19.508 17.24-38.558 21.79-42.179 22.527a30.776 30.776 0 0 1-5.937 0.617l-63.242 0.387h-0.193c-16.866 0-30.591-13.621-30.695-30.51-0.103-16.955 13.557-30.784 30.511-30.887l58.843-0.36c6.653-2.558 24.227-12.108 31.424-43.074a30.5 30.5 0 0 1 0.21-2.305l66.676-501.158 0.06-0.432c15.638-106.007 77.628-120.631 84.645-121.95 0.789-0.149 1.584-0.265 2.382-0.351l20.367-2.194c1.093-0.118 2.19-0.177 3.289-0.177h0.11l497.742 1.83c16.955 0.064 30.648 13.858 30.587 30.812-0.062 16.918-13.794 30.588-30.696 30.588z m89.323 469.54c8.059 35.101 4.077 64.313-11.892 86.917-22.965 32.51-60.684 36.038-64.909 36.334a29.394 29.394 0 0 1-2.239 0.075L351.83 725.41c-16.955-0.054-30.656-13.843-30.601-30.798 0.054-16.955 13.834-30.681 30.797-30.6l519.833 1.66c2.46-0.421 13.037-2.663 18.523-10.43 3.539-5.01 5.039-12.558 4.527-22.013-0.275-1.058-0.499-2.14-0.664-3.247l-2.176-14.662c-0.31-1.25-0.64-2.517-0.998-3.804a30.62 30.62 0 0 1-1.063-10.076l-37.12-250a30.947 30.947 0 0 1-0.922-4.88c-4.959-46.84-25.685-52.697-28.93-53.328l-404.592-36.368c-16.887-1.517-29.346-16.437-27.828-33.324 1.434-15.953 14.826-27.952 30.54-27.952 0.92 0 1.85 0.04 2.784 0.125l405.007 36.405c4.904 0.434 22.983 3.013 41.558 17.937 10.81 8.686 23.471 23.05 32.396 46.208a30.557 30.557 0 0 1 5.963 14.118l43.558 293.368z"  horiz-adv-x="1024" />

    
    <glyph glyph-name="shanchu-copy" unicode="&#58887;" d="M512 463.99429563L218.81958661 757.24070986a56.5636224 56.5636224 0 1 1-79.99429392-79.99429562L431.9397035 384l-293.24641591-293.18041339a56.5636224 56.5636224 0 1 1 79.99429563-79.99429394L512 303.93970349999995l293.18041339-293.24641591a56.5636224 56.5636224 0 1 1 79.99429394 79.99429563L592.0602965 384l293.24641591 293.18041339a56.5636224 56.5636224 0 1 1-79.99429563 79.99429394L512 464.0602965z"  horiz-adv-x="1024" />

    
    <glyph glyph-name="xiajiantou" unicode="&#58944;" d="M259.677 570.6850000100001L768.50799999 570.685c28.16 0 50.934-22.598 50.93400001-50.757 0-13.09300001-5.024-24.932-13.092-33.901l-251.633-335.755c-16.859-22.24-48.607-26.905-71.024-10.044-3.947 2.87099999-7.355 6.281-10.045 10.045l-254.51 339.338c-16.676 22.241-12.193 54.16 10.225 70.844 9.15 6.996 19.73 10.225 30.31 10.225z"  horiz-adv-x="1024" />

    
    <glyph glyph-name="xiajiantou1" unicode="&#58911;" d="M764.323 197.31499999000005L255.49200001 197.31500000000005c-28.16 0-50.934 22.598-50.93400001 50.757 0 13.09300001 5.024 24.932 13.092 33.901l251.633 335.755c16.859 22.24 48.607 26.905 71.024 10.044 3.947-2.87099999 7.355-6.281 10.045-10.045l254.51-339.338c16.676-22.241 12.193-54.16-10.225-70.844-9.15-6.996-19.73-10.225-30.31-10.225z"  horiz-adv-x="1024" />

    
    <glyph glyph-name="fabuqiugou" unicode="&#58965;" d="M713.152834 63.701067M820.43421 406.089088l-82.503039-235.180324c-11.505032-32.713053-42.225707-54.712089-76.518744-54.712089l-322.106092 0c-38.649252 0-72.135924 27.910677-79.640852 66.336848l-54.598502 280.100396-18.061354 84.013439-60.479443 0c-9.630335 0-17.417695 7.864108-17.417695 17.597797 0 9.767458 7.79043 17.633612 17.417695 17.633612l74.490551 0c0.544399 0 1.013073-0.278339 1.529843-0.316202 1.224898-0.112564 2.366907-0.338714 3.52222-0.709151 1.047866-0.338714 2.001587-0.686638 2.944052-1.215688 1.019213-0.530073 1.871627-1.14815 2.765997-1.865487 0.896416-0.715291 1.658779-1.429559 2.394537-2.302439 0.671289-0.840134 1.254573-1.74269 1.769296-2.708692 0.583285-1.049912 1.078565-2.111081 1.441838-3.260254 0.155543-0.529049 0.525979-0.939395 0.648776-1.49198l18.060331-84.071767 530.082844 0c18.670222 0 36.251645-9.209756 47.001477-24.663726 10.8143-15.462157 13.473873-35.337833 7.248078-53.197596l0 0L820.43421 406.089088 820.43421 406.089088zM326.666456 77.950605c38.706557 0 70.174246-31.864732 70.174246-71.054289 0-39.198767-31.472805-71.081918-70.174246-71.081918-38.675858 0-70.136384 31.888268-70.136384 71.081918C256.529049 46.080757 287.987528 77.950605 326.666456 77.950605L326.666456 77.950605 326.666456 77.950605 326.666456 77.950605zM636.718001 77.950605c38.692231 0 70.148663-31.864732 70.148663-71.054289 0-39.198767-31.456433-71.081918-70.148663-71.081918-38.663578 0-70.122057 31.888268-70.122057 71.081918C566.594921 46.080757 598.060563 77.950605 636.718001 77.950605L636.718001 77.950605 636.718001 77.950605 636.718001 77.950605zM636.718001 77.950605M764.910639 833.484178c-83.07302 0-149.935847-64.836681-148.921751-144.871505 0-39.509852 16.208147-74.966389 42.547025-101.308337l0-33.431414 0-31.404244 0-12.156878 66.864874 37.484729c12.157901-3.038196 25.325805-5.065366 39.509852-5.065366 83.07302 0 149.935847 63.824631 149.935847 144.869459C914.847509 768.647497 847.983659 833.484178 764.910639 833.484178L764.910639 833.484178zM684.877861 664.299941c-15.196097 0-26.338878 12.156878-26.338878 26.339902 0 14.182001 12.155854 26.340925 26.338878 26.340925 15.198144 0 26.338878-12.158924 26.338878-26.340925C711.217762 675.444768 699.060885 664.299941 684.877861 664.299941L684.877861 664.299941zM764.910639 664.299941c-15.19712 0-26.338878 12.156878-26.338878 26.339902 0 14.182001 12.154831 26.340925 26.338878 26.340925 15.19712 0 26.340925-12.158924 26.340925-26.340925C791.251563 675.444768 780.107759 664.299941 764.910639 664.299941L764.910639 664.299941zM844.94444 664.299941c-15.19712 0-26.338878 12.156878-26.338878 26.339902 0 14.182001 12.156878 26.340925 26.338878 26.340925 15.196097 0 26.337855-12.158924 26.337855-26.340925C871.282295 675.444768 860.140537 664.299941 844.94444 664.299941L844.94444 664.299941zM844.94444 664.299941"  horiz-adv-x="1024" />

    
    <glyph glyph-name="xuanchuanziliao" unicode="&#59147;" d="M85.531514 559.547155l408.952042-222.844367c4.972245-2.726088 10.635221-4.163833 16.373923-4.163833a33.905204 33.905204 0 0 1 16.236799 4.142343l413.272441 222.832088c11.216459 5.972015 18.107403 17.667382 17.983583 30.524201-0.125867 12.778024-7.287987 24.297382-18.685571 30.058596L530.687106 827.883623c-9.462512 4.79112-21.277606 4.802376-30.876218 0.00614L86.597799 620.003062c-11.472286-5.799076-18.674315-17.319457-18.793019-30.002315-0.243547-12.57234 6.726192-24.533766 17.726734-30.453592z m83.923388 28.819372l345.622691 176.642093 341.517188-176.385243-345.619622-189.03433-341.520257 188.77748zM934.939103 417.432437l-84.995813 43.214221-66.48932-39.839357 68.328202-34.69929-345.536734-189.082426-341.436347 188.729385 72.831772 36.663015-66.218144 40.20263-89.648786-45.080731c-11.470239-5.798053-18.674315-17.281595-18.795065-29.90817-0.2415-12.603039 6.766101-24.603351 17.825994-30.555923l408.954089-222.935442c4.972245-2.727111 10.635221-4.164856 16.373923-4.164856a33.884738 33.884738 0 0 1 16.235776 4.143366l413.268348 222.829018c11.216459 5.975085 18.107403 17.672498 17.986653 30.590716-0.248663 12.68081-7.402597 24.13263-18.684548 29.893844zM934.862355 224.558661l-84.225263 41.410132-14.601556-42.11212 20.201088-28.224831-349.991186-191.518919-345.338213 190.790325 23.388686 27.613917-14.379498 42.612517-88.14248-40.60172c-11.472286-5.801123-18.674315-17.284665-18.795065-29.9051-0.245593-12.731976 6.578836-24.473391 17.825994-30.655184l408.954089-222.837204c4.972245-2.726088 10.635221-4.164856 16.373923-4.164857a33.895995 33.895995 0 0 1 16.235776 4.143367l413.268348 222.829018c11.211343 5.969968 18.10331 17.664312 17.986653 30.586622-0.24457 12.620435-7.382131 24.098861-18.761296 30.034037z"  horiz-adv-x="1024" />

    
    <glyph glyph-name="xinwen" unicode="&#59041;" d="M885.76-93.7984H106.2912c-23.9616 0-43.2128 18.6368-43.2128 41.5744V820.224c0 22.9376 19.456 41.5744 43.2128 41.5744h779.4688c23.9616 0 43.2128-18.6368 43.2128-41.5744v-872.448c0-22.9376-19.2512-41.5744-43.2128-41.5744zM839.4752 731.3408c0 22.9376-19.456 41.5744-43.2128 41.5744h-602.112c-23.9616 0-43.2128-18.6368-43.2128-41.5744v-694.8864c0-22.9376 19.456-41.5744 43.2128-41.5744h602.112c23.9616 0 43.2128 18.6368 43.2128 41.5744V731.3408z m-123.2896-93.184c2.048-0.8192 8.192-2.6624 18.6368-5.3248 14.7456-3.8912 25.1904-7.168 31.1296-9.8304 5.9392-2.4576 10.4448-6.144 13.9264-11.0592s4.9152-10.8544 4.9152-18.0224c0-6.9632-2.048-13.5168-6.144-19.8656-4.096-6.144-10.0352-11.0592-17.6128-14.336-7.7824-3.2768-16.384-5.12-26.2144-5.12-16.1792 0-28.4672 3.2768-36.864 10.0352-8.3968 6.7584-13.9264 16.5888-16.1792 29.696l20.6848 3.2768c1.2288-8.3968 4.5056-14.7456 9.8304-19.0464 5.3248-4.5056 12.6976-6.7584 22.3232-6.7584s16.7936 2.048 21.504 5.9392c4.7104 3.8912 6.9632 8.6016 6.9632 13.9264 0 4.7104-2.048 8.3968-6.144 11.264-2.8672 1.8432-10.0352 4.3008-21.504 7.168-15.36 3.8912-26.0096 7.168-31.9488 10.0352-5.9392 2.8672-10.4448 6.7584-13.5168 11.8784-3.072 4.9152-4.5056 10.4448-4.5056 16.5888 0 5.5296 1.2288 10.6496 3.8912 15.36s5.9392 8.6016 10.24 11.6736c3.2768 2.4576 7.7824 4.5056 13.312 6.144s11.6736 2.4576 18.2272 2.4576c9.8304 0 18.2272-1.4336 25.6-4.3008 7.3728-2.8672 12.6976-6.5536 16.1792-11.4688 3.4816-4.7104 5.9392-11.264 7.168-19.2512l-20.48-2.8672c-1.024 6.3488-3.6864 11.264-8.192 14.9504-4.5056 3.4816-10.8544 5.3248-19.0464 5.3248-9.6256 0-16.5888-1.6384-20.6848-4.7104-4.096-3.2768-6.144-6.9632-6.144-11.264 0-2.6624 0.8192-5.12 2.6624-7.3728 1.6384-1.6384 4.3008-3.4816 7.9872-5.12z m-110.7968-80.4864L585.728 631.808l-4.7104 21.0944-25.1904-95.232h-21.9136l-37.888 123.904h21.7088l19.6608-71.4752 7.3728-26.624c0.2048 1.2288 2.4576 9.8304 6.3488 25.6l19.6608 72.4992h21.504l18.6368-71.8848 6.144-23.7568 7.168 23.9616 21.2992 71.68h20.48l-38.7072-123.904h-21.9136z m-219.136 56.7296c0.8192-13.5168 4.7104-23.9616 11.4688-31.3344 6.9632-7.168 15.5648-10.8544 25.8048-10.8544 7.7824 0 14.336 2.048 19.6608 6.144 5.5296 4.096 9.8304 10.4448 12.9024 19.2512l21.7088-2.6624c-3.4816-12.6976-9.8304-22.528-19.0464-29.4912-9.216-6.9632-21.0944-10.4448-35.4304-10.4448-18.2272 0-32.5632 5.5296-43.008 16.7936-10.6496 11.264-15.9744 26.8288-15.9744 46.8992 0 20.8896 5.3248 37.0688 16.1792 48.5376 10.6496 11.4688 24.576 17.2032 41.7792 17.2032 16.5888 0 30.1056-5.7344 40.5504-16.9984 10.4448-11.264 15.7696-27.2384 15.7696-47.5136 0-1.2288 0-3.072-0.2048-5.5296h-92.16z m62.464 40.7552c-6.7584 8.192-15.36 12.0832-26.0096 12.0832-9.6256 0-17.8176-3.2768-24.3712-9.6256-6.5536-6.5536-10.24-15.1552-10.8544-25.8048H456.704c-1.024 10.24-3.6864 18.0224-7.9872 23.3472z m-136.8064-22.1184c0 8.6016-0.8192 14.9504-2.4576 19.2512-1.6384 4.3008-4.5056 7.5776-8.6016 10.24-4.096 2.4576-9.0112 3.8912-14.5408 3.8912-9.0112 0-16.5888-2.8672-23.1424-8.6016-6.5536-5.7344-9.8304-16.384-9.8304-32.3584v-67.584h-21.0944v123.904h18.8416v-17.6128c9.0112 13.5168 22.3232 20.48 39.5264 20.48 7.3728 0 14.336-1.4336 20.48-4.096 6.3488-2.6624 10.8544-6.144 14.1312-10.4448 3.072-4.3008 5.3248-9.6256 6.5536-15.5648 0.8192-3.8912 1.2288-10.6496 1.2288-20.48v-76.1856h-21.0944v75.1616z m-49.5616-129.8432h465.3056c11.8784 0 21.7088-9.216 21.7088-20.6848v-47.9232c0-11.4688-9.6256-20.6848-21.7088-20.6848H262.3488c-11.8784 0-21.7088 9.216-21.7088 20.6848v47.9232c0 11.4688 9.6256 20.6848 21.7088 20.6848z m0-148.6848h465.3056c11.8784 0 21.7088-9.216 21.7088-20.6848v-47.9232c0-11.4688-9.6256-20.6848-21.7088-20.6848H262.3488c-11.8784 0-21.7088 9.216-21.7088 20.6848v47.9232c0 11.4688 9.6256 20.6848 21.7088 20.6848z m0-178.9952h465.3056c11.8784 0 21.7088-9.216 21.7088-20.6848v-47.9232c0-11.4688-9.6256-20.6848-21.7088-20.6848H262.3488c-11.8784 0-21.7088 9.216-21.7088 20.6848v47.9232c0 11.4688 9.6256 20.6848 21.7088 20.6848z"  horiz-adv-x="1024" />

    
    <glyph glyph-name="bangdan" unicode="&#58890;" d="M267.636364 749.381818l34.909091-46.545454 55.854545-18.618182-34.909091-48.872727v-58.181819l-55.854545 16.290909-55.854546-18.618181v58.181818L176.872727 684.218182l55.854546 18.618182 34.909091 46.545454z m0-279.272727l34.909091-46.545455 55.854545-18.618181-34.909091-48.872728v-58.181818l-55.854545 18.618182-55.854546-18.618182v58.181818l-34.909091 48.872728 55.854546 18.618181 34.909091 46.545455z m0-279.272727l34.909091-46.545455 55.854545-18.618182-34.909091-48.872727v-58.181818l-55.854545 18.618182-55.854546-18.618182v58.181818l-34.909091 48.872727 55.854546 18.618182 34.909091 46.545455zM930.909091 896H93.090909C41.890909 896 0 854.109091 0 802.909091v-837.818182c0-51.2 41.890909-93.090909 93.090909-93.090909h837.818182c51.2 0 93.090909 41.890909 93.090909 93.090909V802.909091c0 51.2-41.890909 93.090909-93.090909 93.090909z m46.545454-907.636364c0-39.563636-30.254545-69.818182-69.818181-69.818181H116.363636c-39.563636 0-69.818182 30.254545-69.818181 69.818181V779.636364c0 39.563636 30.254545 69.818182 69.818181 69.818181h791.272728c39.563636 0 69.818182-30.254545 69.818181-69.818181v-791.272728zM821.527273 640h-372.363637c-13.963636 0-23.272727 9.309091-23.272727 23.272727s9.309091 23.272727 23.272727 23.272728h372.363637c13.963636 0 23.272727-9.309091 23.272727-23.272728s-11.636364-23.272727-23.272727-23.272727zM821.527273 360.727273h-372.363637c-13.963636 0-23.272727 9.309091-23.272727 23.272727s9.309091 23.272727 23.272727 23.272727h372.363637c13.963636 0 23.272727-9.309091 23.272727-23.272727s-11.636364-23.272727-23.272727-23.272727zM821.527273 81.454545h-372.363637c-13.963636 0-23.272727 9.309091-23.272727 23.272728s9.309091 23.272727 23.272727 23.272727h372.363637c13.963636 0 23.272727-9.309091 23.272727-23.272727 0-11.636364-9.309091-23.272727-23.272727-23.272728z"  horiz-adv-x="1024" />

    
    <glyph glyph-name="zhaopin" unicode="&#58999;" d="M699 47.8c-8.4 0-16 5.6-18.1 14.1-12.1 47.9-36.2 89.2-69.9 119.7-7.6 6.9-8.2 18.7-1.3 26.4 6.9 7.6 18.7 8.3 26.4 1.3 39.1-35.4 67.1-83.2 81-138.2 2.5-10-3.5-20.1-13.5-22.7-1.5-0.4-3-0.6-4.6-0.6z m-410.8 0.1c-1.5 0-3.1 0.2-4.6 0.6-10 2.5-16 12.7-13.5 22.7 29.2 115.4 121.1 195.9 223.5 195.9 10.3 0 18.7-8.4 18.7-18.7 0-10.3-8.4-18.7-18.7-18.7-85.3 0-162.4-69-187.3-167.8-2.2-8.4-9.8-14-18.1-14zM493.6 229.4c-120.9 0-219.3 101.7-219.3 226.7 0 125 98.4 226.6 219.3 226.6S712.9 581 712.9 456.1c0-125-98.4-226.7-219.3-226.7z m0 416c-100.3 0-182-84.9-182-189.3s81.6-189.3 182-189.3c100.3 0 182 84.9 182 189.3s-81.7 189.3-182 189.3zM941.7-64c-4.8 0-9.6 1.8-13.2 5.5L779.1 90.8c-7.3 7.3-7.3 19.1 0 26.4 7.3 7.3 19.1 7.3 26.4 0l149.4-149.4c7.3-7.3 7.3-19.1 0-26.4-3.7-3.6-8.4-5.4-13.2-5.4zM493.6 794.8c216.2 0 392.1-175.9 392.1-392.1 0-216.2-175.9-392.1-392.1-392.1s-392 176-392 392.1c0 216.2 175.8 392.1 392 392.1m0 37.3c-237.2 0-429.4-192.2-429.4-429.4s192.2-429.4 429.4-429.4c237.1 0 429.4 192.2 429.4 429.4S730.8 832.1 493.6 832.1z"  horiz-adv-x="1024" />

    
    <glyph glyph-name="zhuanli" unicode="&#58937;" d="M512 736c-123.84 0-224.224-100.288-224.224-224s100.384-224 224.224-224c123.808 0 224.192 100.288 224.192 224s-100.384 224-224.192 224zM512 352c-88.48 0-160.16 71.616-160.16 160s71.68 160 160.16 160c88.448 0 160.16-71.616 160.16-160s-71.712-160-160.16-160zM798.304 256.48c60.81 67.359 98.016 157.048 98.016 255.426 0 0.033-0 0.066-0 0.099 0 212.059-172.064 383.995-384.352 383.995s-384.352-171.936-384.352-384c0-98.272 37.248-187.616 98.016-255.52l-129.632-225.632 168.64-24.512 105.152-134.336 142.208 247.52 142.208-247.52 105.088 134.336 168.672 24.512-129.664 225.632zM354.144-31.68l-50.784 107.2-114.88-7.584 81.056 146.208c58.1-47.499 131.442-78.398 211.712-84.527l-127.104-161.297zM191.68 512c0 176.704 143.424 320 320.32 320 176.864 0 320.288-143.296 320.288-320s-143.424-320-320.288-320c-176.896 0-320.32 143.296-320.32 320zM720.608 75.52l-50.784-107.232-91.872 165.728c80.203 14.121 149.964 51.465 203.963 104.744l53.573-170.824-114.88 7.584z"  horiz-adv-x="1024" />

    
    <glyph glyph-name="dachenghezuo" unicode="&#59052;" d="M601.6 9.6l-16 16-67.2-67.2 16-16c16-16 44.8-12.8 64 6.4 16 16 19.2 44.8 3.2 60.8zM889.6 300.8L780.8 416l-118.4 124.8-83.2-76.8c-54.4-54.4-128-57.6-134.4-57.6h-9.6c-83.2 0-160 76.8-163.2 80l-12.8 12.8 12.8 12.8c6.4 6.4 124.8 128 217.6 220.8-19.2 19.2-35.2 35.2-44.8 41.6-25.6 22.4-80 51.2-147.2 54.4-51.2 3.2-124.8-6.4-188.8-73.6-89.6-92.8-99.2-198.4-32-310.4 0-3.2 3.2-3.2 3.2-3.2 16-28.8 70.4-76.8 89.6-92.8l-6.4-6.4 67.2 67.2c12.8 16 32 22.4 54.4 22.4 19.2 0 38.4-6.4 54.4-22.4 16-12.8 22.4-32 22.4-54.4v-9.6c6.4 0 12.8 3.2 16 3.2 19.2 0 38.4-6.4 54.4-22.4 16-12.8 22.4-32 22.4-54.4v-9.6h12.8c19.2 0 38.4-6.4 54.4-22.4 16-16 25.6-41.6 22.4-60.8h16c19.2 0 38.4-6.4 54.4-22.4 28.8-28.8 28.8-76.8 0-105.6l16-16c6.4-6.4 19.2-9.6 28.8-9.6 12.8 0 25.6 6.4 35.2 16 9.6 9.6 16 22.4 16 35.2s-3.2 22.4-9.6 28.8l-140.8 144 25.6 25.6 144-144c6.4-6.4 19.2-9.6 28.8-9.6 12.8 0 25.6 6.4 35.2 16 19.2 19.2 22.4 48 6.4 64l-140.8 137.6 9.6 9.6 12.8 16 144-134.4c16-16 44.8-12.8 64 6.4 16 19.2 16 48 0 64zM742.4 838.4c-64 0-115.2-25.6-140.8-48-67.2-60.8-246.4-243.2-294.4-291.2 22.4-19.2 73.6-57.6 124.8-57.6h6.4s64 3.2 112 48l108.8 102.4 217.6-224c19.2 19.2 54.4 57.6 67.2 73.6 19.2 22.4 41.6 67.2 44.8 124.8 3.2 48-9.6 118.4-73.6 188.8-51.2 54.4-108.8 83.2-172.8 83.2zM588.8 134.4c-6.4 6.4-19.2 12.8-28.8 12.8s-22.4-3.2-28.8-12.8l-108.8-108.8c-6.4-6.4-12.8-19.2-12.8-28.8s3.2-22.4 12.8-28.8c6.4-6.4 19.2-12.8 28.8-12.8 9.6 0 22.4 3.2 28.8 12.8l108.8 108.8c16 16 16 41.6 0 57.6zM496 217.6c-6.4 6.4-19.2 12.8-28.8 12.8-9.6 0-22.4-3.2-28.8-12.8l-108.8-108.8c-6.4-6.4-12.8-19.2-12.8-28.8s3.2-22.4 12.8-28.8c6.4-6.4 19.2-12.8 28.8-12.8 9.6 0 22.4 3.2 28.8 12.8l108.8 108.8c16 16 16 41.6 0 57.6zM326.4 355.2c0 9.6-3.2 22.4-12.8 28.8-6.4 6.4-19.2 12.8-28.8 12.8-9.6 0-22.4-3.2-28.8-12.8l-108.8-108.8c-6.4-6.4-12.8-19.2-12.8-28.8s3.2-22.4 12.8-28.8c6.4-6.4 19.2-12.8 28.8-12.8s22.4 3.2 28.8 12.8l108.8 108.8c9.6 9.6 12.8 19.2 12.8 28.8zM419.2 272c0 9.6-3.2 22.4-12.8 28.8-6.4 6.4-19.2 12.8-28.8 12.8-9.6 0-22.4-3.2-28.8-12.8L240 192c-6.4-6.4-9.6-16-9.6-28.8 0-9.6 3.2-22.4 12.8-28.8 6.4-6.4 19.2-12.8 28.8-12.8s22.4 3.2 28.8 12.8l108.8 108.8c6.4 6.4 9.6 19.2 9.6 28.8z"  horiz-adv-x="1024" />

    
    <glyph glyph-name="weizhi" unicode="&#58886;" d="M512.036995 636.646231c-99.326741 0-180.126142-79.190632-180.126142-176.544656 0-97.352025 80.798401-176.542656 180.126142-176.542656 99.289746 0 180.088148 79.190632 180.088147 176.543656 0 97.353025-80.798401 176.544656-180.088147 176.544656z m0-294.251758c-66.218494 0-120.120756 52.769425-120.120756 117.708102 0 64.901683 53.866267 117.708102 120.120756 117.708103 66.180499 0 120.046767-52.806419 120.046766-117.708103 0-64.938678-53.866267-117.708102-120.046766-117.708102zM855.220729 720.917134c-5.627192 7.819877-11.291379 15.457781-17.431498 22.839721a193.950158 193.950158 0 0 1-4.165402 4.897297c-6.395082 7.45493-13.119117 14.580907-20.027125 21.5969-3.397512 3.399512-6.540061 6.505066-9.500636 9.318662-5.628192 5.372229-11.474353 10.488494-17.431497 15.53177a409.560206 409.560206 0 0 0-3.76346 3.06956c-13.083122 9.976568-31.940415 7.673898-42.135951-5.15326-6.907008-8.769741-8.075841-20.13511-3.909439-29.709735 1.789743-4.093412 4.749318-7.747888 8.513778-10.817448 1.425795-1.169832 2.741606-2.484643 4.166402-3.727464 2.302669-1.863732 5.555203-4.787313 9.720604-8.660757a332.038334 332.038334 0 0 0 14.032986-13.740028 402.84417 402.84417 0 0 0 10.744457-11.584337c2.776601-3.143549 5.627192-6.249103 8.294809-9.501636 49.882839-60.590302 79.958522-137.552254 79.958522-221.274235 0-170.73349-278.757983-466.009102-357.253714-541.837217C397.470441 57.570361 151.821705 330.371199 151.821705 484.002144c0 194.670054 161.596802 353.124307 360.21429 353.124308 10.962426 0 21.742879-0.6939 32.414347-1.643764 2.045706-0.146979 4.092413-0.292958 6.139118-0.511927 20.720026-2.119696 40.783145-6.249103 60.334339-11.730316 7.052988-2.119696 9.318662-2.814596 16.444639-5.555203 0.547921-0.219968 1.095843-0.109984 1.680759-0.291958 15.019844-4.787313 31.355499 2.374659 37.238654 16.956566 6.029134 15.165823-1.607769 32.231373-17.029555 38.151523-8.441788 3.252533-16.773592 5.957145-25.142391 8.441788-24.228522 7.344946-43.12181 10.122547-66.10851 12.461212-2.374659 0.255963-4.749318 0.438937-7.088982 0.657905-3.252533 0.255963-9.793594 0.620911-9.793594 0.474932-9.68461 0.6949-19.259235 1.46179-29.088824 1.46179-231.726735 0-420.25667-184.839465-420.25667-411.960861 0-221.236241 385.283691-588.101575 401.692335-603.560356 5.737176-5.444218 13.265096-8.294809 20.867004-8.294809 4.53035 0 9.098694 1.022853 13.338086 3.105554 16.773592 8.185825 404.577921 384.077864 404.57792 608.713616 0 88.180341-28.685882 169.819622-77.034941 236.91499z"  horiz-adv-x="1024" />

    
    <glyph glyph-name="maijiabaojia" unicode="&#58912;" d="M178 38.1V688.8c0 24.5 19.9 44.4 44.5 44.4h73.8V577h432.3V733.2h75c24.6 0 44.5-19.9 44.5-44.4v-650.7c0-24.5-19.9-44.4-44.5-44.4H222.4c-24.6 0.1-44.4 19.9-44.4 44.4z m354.7 189.4V305h152.1c3.1 0 5.6 2.5 5.6 5.5v28.3c0 3.1-2.5 5.5-5.6 5.5H569.1l88.8 88.7c2.1 2.2 2.1 5.6 0 7.8l-20 20c-2.2 2.2-5.7 2.2-7.9 0L517.1 348.1h-9.5l-113 112.8c-2.2 2.2-5.7 2.2-7.9 0l-20-20c-2.1-2.2-2.1-5.6 0-7.8l88.8-88.7H341.2c-3.1 0-5.6-2.5-5.6-5.5v-28.3c0-3.1 2.5-5.5 5.6-5.5h152.1v-77.5H341.2c-3.1 0-5.6-2.5-5.6-5.5v-28.3c0-3.1 2.5-5.5 5.6-5.5h152.1V78c0-3.1 2.5-5.5 5.6-5.5h28.3c3.1 0 5.6 2.5 5.6 5.5V188.2h152c3.1 0 5.6 2.5 5.6 5.5V222c0 3.1-2.5 5.5-5.6 5.5H532.7zM369 773.8h286.7c18.4 0 33.4-14.9 33.4-33.3v-124.2H335.6V740.5c0 18.4 14.9 33.3 33.4 33.3z"  horiz-adv-x="1024" />

    
    <glyph glyph-name="jia" unicode="&#58927;" d="M679.556 356.13c15.472 0 27.979 12.507 27.979 27.979 0 15.444-12.507 27.979-27.979 27.979H343.805c-15.444 0-27.979-12.535-27.979-27.979 0-15.472 12.535-27.979 27.979-27.979h335.751zM847.431 831.777H175.929c-61.806 0-111.917-50.111-111.917-111.917v-671.502c0-61.806 50.111-111.917 111.917-111.917h671.502c61.806 0 111.917 50.111 111.917 111.917V719.86c-0.001 61.806-50.112 111.917-111.917 111.917z m55.958-783.418c0-30.889-25.069-55.958-55.958-55.958H175.929c-30.889 0-55.958 25.069-55.958 55.958V719.86c0 30.889 25.069 55.958 55.958 55.958h671.502c30.889 0 55.958-25.069 55.958-55.958v-671.501zM485.021 216.933c0-15.472 12.507-27.979 27.979-27.979 15.444 0 27.979 12.507 27.979 27.979V552.684c0 15.444-12.535 27.979-27.979 27.979-15.472 0-27.979-12.535-27.979-27.979v-335.751z"  horiz-adv-x="1024" />

    
    <glyph glyph-name="Stacking_A_px" unicode="&#60038;" d="M543.744 334.848L332.8 343.04c-10.24 0-21.504 3.072-32.768 8.192l-147.456 70.656c-7.168 3.072-11.264 10.24-11.264 18.432s4.096 15.36 11.264 18.432l417.792 197.632c6.144 3.072 12.288 3.072 17.408 0L870.4 518.144c7.168-3.072 11.264-10.24 11.264-18.432s-4.096-15.36-11.264-18.432L583.68 343.04h-1.024c-11.264-5.12-24.576-8.192-38.912-8.192z m30.72 26.624z m-364.544 78.848l108.544-52.224c6.144-3.072 10.24-4.096 15.36-4.096l210.944-8.192c7.168 0 14.336 1.024 21.504 4.096l249.856 119.808-235.52 115.712-370.688-175.104zM440.32 187.392c-3.072 0-6.144 1.024-9.216 2.048L152.576 329.728c-10.24 5.12-14.336 17.408-9.216 27.648s17.408 14.336 27.648 9.216L440.32 230.4l412.672 194.56c10.24 5.12 22.528 0 27.648-10.24s0-22.528-10.24-27.648L449.536 189.44c-3.072-1.024-6.144-2.048-9.216-2.048zM440.32 94.208c-3.072 0-6.144 1.024-9.216 2.048L152.576 236.544c-10.24 5.12-14.336 17.408-9.216 27.648 5.12 10.24 17.408 14.336 27.648 9.216L440.32 137.216 852.992 332.8c10.24 5.12 22.528 0 27.648-10.24s0-22.528-10.24-27.648L449.536 96.256c-3.072-1.024-6.144-2.048-9.216-2.048zM544.768 334.848c-3.072 0-6.144 1.024-8.192 2.048-3.072 1.024-62.464 29.696-103.424 79.872-40.96-49.152-88.064-71.68-90.112-72.704-10.24-5.12-22.528 0-26.624 10.24-5.12 10.24 0 22.528 10.24 26.624 0 0 54.272 25.6 90.112 81.92 4.096 6.144 10.24 9.216 17.408 9.216s13.312-4.096 17.408-10.24c30.72-55.296 101.376-88.064 102.4-89.088 10.24-5.12 14.336-17.408 10.24-27.648-4.096-6.144-11.264-10.24-19.456-10.24z"  horiz-adv-x="1024" />

    
    <glyph glyph-name="qiye2" unicode="&#60123;" d="M904.7 25.3h-67.8V752c0 22.5-9.7 44.1-26.6 59.2C793 826.6 769.8 834.1 747 831.5l-379.5-37c-41.1-4.6-72.1-38.8-72.1-79.5v-119.1L227 589c-22.7-2.6-39.8-21.8-39.8-44.7v-519.1h-67.8c-23.6 0-42.8-19.1-42.8-42.7v-3.8c0-23.6 19.1-42.8 42.8-42.8h785.4c23.6 0 42.8 19.1 42.8 42.8v3.8c-0.2 23.7-19.3 42.8-42.9 42.8zM280.2 457l282.1 35.5v-62L280.2 395v62z m0-148.9l282.1 35.5v-62l-282.1-35.5v62z m0-148.9l282.1 35.5v-62l-282.1-35.5v62zM606 627.1l-238-23.9V715c0 3.7 3.3 6.9 7.1 7.3l379.5 37c3.8 0.5 6.3-1.2 7.4-2.2 1.6-1.4 2.4-3.1 2.4-5.1v-726.6H656.1v557c0 26.9-23.4 47.8-50.1 44.7z"  horiz-adv-x="1024" />

    
    <glyph glyph-name="caigou" unicode="&#58897;" d="M833.163636 262.981818c18.618182 0 32.581818 13.963636 41.890909 27.927273l144.29091 325.818182c4.654545 9.309091 4.654545 13.963636 4.654545 23.272727 0 27.927273-23.272727 51.2-46.545455 51.2H265.309091l-27.927273 79.127273c-4.654545 18.618182-23.272727 32.581818-46.545454 32.581818H46.545455c-23.272727 0-46.545455-23.272727-46.545455-51.2s23.272727-51.2 46.545455-51.2h111.70909l186.181819-539.927273H256c-51.2 0-97.745455-41.890909-97.745455-97.745454s46.545455-97.745455 97.745455-97.745455 97.745455 41.890909 97.745455 97.745455h446.836363c0-55.854545 41.890909-97.745455 97.745455-97.745455s97.745455 41.890909 97.745454 97.745455-41.890909 97.745455-97.745454 97.745454H442.181818L418.909091 230.4l414.254545 32.581818z m-446.836363 65.163637L297.890909 588.8h605.090909l-102.4-232.727273-414.254545-27.927272z"  horiz-adv-x="1024" />

    
    <glyph glyph-name="weiyujiju" unicode="&#59035;" d="M529.075399 748.021873c57.933457 0 114.12934-11.343349 167.027108-33.716916 51.101865-21.614274 97.002264-52.5611 136.425136-91.980901 39.421848-39.420825 70.373791-85.319178 91.991134-136.420019 22.376637-52.896744 33.723056-109.09672 33.723056-167.040411 0-57.936527-11.346419-114.12934-33.723056-167.025061-21.618367-51.096748-52.569286-96.992031-91.991134-136.411833-39.422871-39.418778-85.326341-70.365604-136.425136-91.977831-52.894697-22.37152-109.090581-33.715893-167.027108-33.715893-57.936527 0-114.130364 11.343349-167.021991 33.715893-51.096748 21.611204-96.987938 52.555983-136.40774 91.976808-39.416731 39.418778-70.361511 85.313038-91.974761 136.411833-22.369473 52.892651-33.712823 109.087511-33.712823 167.026084 0 57.944713 11.343349 114.145713 33.713846 167.041434 21.61325 51.101865 52.557006 97.000218 91.974761 136.420019 39.418778 39.418778 85.310991 70.366627 136.406716 91.979878C414.945035 736.678524 471.138872 748.021873 529.075399 748.021873M529.075399 768.487997c-248.28683 0-449.583438-201.302749-449.583438-449.624371 0-248.295016 201.296609-449.593671 449.583438-449.593671 248.281713 0 449.635627 201.301725 449.635627 449.593671C978.711026 567.185248 777.357112 768.487997 529.075399 768.487997L529.075399 768.487997zM293.486776 545.156536l152.301731 0 0-62.059428-152.301731 0 0 62.059428ZM293.486776 462.834622l152.301731 0 0-201.461361-152.301731 0 0 201.461361ZM466.050993 298.242983l321.261864 0 0-36.869722-321.261864 0 0 36.869722ZM551.978015 88.806997l149.408845 0 0-28.133757-149.408845 0 0 28.133757ZM626.684484 112.981582c88.718601 0 160.629397 57.384965 160.629397 128.180358L466.050993 241.16194C466.050993 170.366547 537.962813 112.981582 626.684484 112.981582zM419.788344 159.601366c-7.211239 2.843768-21.63474 2.133593-40.424688 18.078751-15.185864 12.850679-17.318434 28.844955-18.74083 41.135886-1.422396 12.288884-5.078669 20.211321-14.423501 22.345937-9.445116 2.183735-13.001105-5.79089-14.471596-10.057053-1.474584-4.367471 0-12.288884 0-12.288884 0.711198-2.181689 4.620227-35.650965 23.816428-54.897308 21.685905-21.685905 47.635927-27.475771 59.925834-27.475771 12.289907 0 18.789948 5.586229 17.368576 11.579733C431.517479 153.506555 427.048701 156.70848 419.788344 159.601366z"  horiz-adv-x="1024" />

    
    <glyph glyph-name="mtbdm" unicode="&#58884;" d="M86.426071 15.310804l857.297392 0L943.723463 752.689196 86.426071 752.689196 86.426071 15.310804zM894.990451 64.950872 135.158058 64.950872 135.158058 693.24472l759.832393 0L894.990451 64.950872zM237.399195 544.811354l90.253644 0 0-88.078759-90.253644 0 0 88.078759ZM357.634895 508.640817l443.812936 0 0-18.134977-443.812936 0 0 18.134977ZM237.399195 406.219293l90.253644 0 0-88.076709-90.253644 0 0 88.076709ZM357.634895 370.047731l443.812936 0 0-18.021211-443.812936 0 0 18.021211ZM237.399195 267.72255l90.253644 0 0-88.134105-90.253644 0 0 88.134105ZM357.634895 231.511016l443.812936 0 0-18.058108-443.812936 0 0 18.058108Z"  horiz-adv-x="1024" />

    
    <glyph glyph-name="jiantouarrowheads3" unicode="&#59069;" d="M547.584 93.16352c20.89984-20.89984 20.89984-54.80448 0-75.70432-20.89984-20.91008-54.79424-20.91008-75.70432 0l-328.704 328.69376c-10.4448 10.45504-15.6672 24.14592-15.6672 37.84704s5.23264 27.40224 15.6672 37.84704l328.704 328.69376c20.91008 20.91008 54.80448 20.91008 75.70432 0 20.89984-20.89984 20.89984-54.79424 0-75.70432L256.74752 384 547.584 93.16352zM589.96736 384l290.83648 290.83648c20.89984 20.91008 20.89984 54.80448 0 75.70432-20.89984 20.91008-54.79424 20.91008-75.70432 0l-328.704-328.69376c-10.4448-10.45504-15.6672-24.14592-15.6672-37.84704s5.23264-27.40224 15.6672-37.84704l328.704-328.69376c20.91008-20.91008 54.80448-20.91008 75.70432 0 20.89984 20.89984 20.89984 54.80448 0 75.70432L589.96736 384z"  horiz-adv-x="1024" />

    
    <glyph glyph-name="weixin" unicode="&#58920;" d="M506.942 550.079c25.259 0 42.134 16.916 42.134 42.107 0 25.477-16.848 41.956-42.134 41.956-25.299 0-50.668-16.48-50.668-41.956 0.028-25.204 25.409-42.107 50.668-42.107l0 0zM506.942 550.079zM271.257 634.143c-25.259 0-50.79-16.48-50.79-41.956 0-25.19 25.532-42.107 50.79-42.107 25.163 0 42.012 16.916 42.012 42.107-0.014 25.477-16.834 41.956-42.012 41.956l0 0zM271.257 634.143zM1010.654 280.508c0 133.202-123.563 246.702-275.237 258.512 0.205 1.652 0.301 3.373-0.068 5.092-30.406 141.79-182.886 248.695-354.7 248.695-194.15 0-352.119-135.387-352.119-301.793 0-89.279 45.574-169.725 131.946-233.158l-30.106-90.508c-1.939-5.885-0.177-12.37 4.506-16.452 2.853-2.458 6.445-3.741 10.076-3.741 2.335 0 4.697 0.546 6.867 1.625l113.036 56.565 13.926-2.827c34.802-7.154 64.853-13.353 101.868-13.353 10.895 0 40.878 3.987 43.404 7.182 40.755-101.99 153.094-175.61 285.273-175.61 33.86 0 68.13 8.164 98.891 15.866l87.136-47.636c2.307-1.257 4.847-1.911 7.359-1.911 3.441 0 6.881 1.161 9.639 3.413 4.847 3.932 6.841 10.404 5.038 16.33l-22.255 74.001c74.602 58.955 115.521 129.488 115.521 199.708l0 0zM409.798 230.25c-9.626-0.833-19.388-1.243-29.082-1.243-32.686 0-60.334 5.652-92.31 12.26l-18.582 3.755c-3.195 0.683-6.567 0.245-9.503-1.269l-81.687-40.892 21.231 63.775c2.076 6.24-0.205 13.053-5.57 16.821-82.07 57.207-123.659 126.894-123.659 207.093 0 144.179 139.087 261.516 310.067 261.516 151.142 0 284.959-91.955 312.579-214.261-158.475-2.076-286.706-113.487-286.706-250.32 0-19.893 3.018-39.171 8.11-57.767-1.542 0.382-3.168 0.683-4.887 0.532l0 0zM860.371 107.301c-4.875-3.673-6.935-10.007-5.188-15.852l13.804-45.903-56.647 30.993c-2.157 1.188-4.588 1.803-7.004 1.803-1.188 0-2.389-0.15-3.564-0.464-30.379-7.674-61.822-15.593-92.433-15.593-142.186 0-257.857 97.717-257.857 217.811 0 120.095 115.658 217.771 257.857 217.771 139.469 0 257.325-99.724 257.325-217.771 0-59.87-37.738-121.255-106.291-172.797l0 0zM868.181 98.822zM616.454 389.994c-16.848 0-33.696-16.971-33.696-33.792 0-16.944 16.848-33.669 33.696-33.669 25.313 0 42.038 16.725 42.038 33.669 0 16.848-16.725 33.792-42.038 33.792l0 0zM616.454 389.994zM801.58 389.994c-16.603 0-33.451-16.971-33.451-33.792 0-16.944 16.848-33.669 33.451-33.669 25.231 0 42.257 16.725 42.257 33.669 0 16.848-16.998 33.792-42.257 33.792l0 0zM801.58 389.994z"  horiz-adv-x="1024" />

    
    <glyph glyph-name="fuwu" unicode="&#58892;" d="M740.918713 734.223476c-9.842159-0.73985-19.808138-0.760317-29.488615-2.431376-8.927323-1.541099-17.663288-4.519943-26.276457-7.471159-10.68741-3.663436-21.313422-7.601118-31.671327-12.097526-6.331195-2.7486-12.332886-6.437619-18.08796-10.293437-11.113105-7.444553-22.569018-14.57188-32.741705-23.178909-12.81998-10.846022-24.658609-22.880103-36.633339-34.69315-18.037818-17.793248-35.818787-35.845393-53.722552-53.774741-18.258852-18.286482-36.512588-36.577057-54.80521-54.828746-18.061354-18.022469-36.19434-35.974329-54.247508-54.004985-15.998369-15.978926-31.949666-32.004925-47.877427-48.054459-3.608178-3.635807-5.684466-3.618411-9.289574 0.030699-7.179516 7.267521-14.363126 14.537088-21.779026 21.560038-2.486634 2.354628-2.53166 3.625574-0.078795 6.085602 76.194356 76.389808 152.23317 152.935158 228.508367 229.244124 13.804401 13.81054 28.835745 26.317389 45.512566 36.674271 9.887184 6.139837 19.495006 12.795421 29.721929 18.303878 8.868995 4.776793 18.381649 8.388041 27.706015 12.281721 7.011694 2.927679 14.177907 5.485945 21.273513 8.214079 0.476861 0.183172 0.916882 0.50142 1.406023 0.604774 15.087627 3.192715 29.964452 7.43432 45.571918 7.861038 6.711865 0.184195 13.372565 1.812275 20.092617 2.348488 2.400676 0.191358 4.883217-1.052982 7.362688-1.376347 6.51846-0.852414 13.037944-1.822508 19.589151-2.251274 6.983041-0.457418 13.680581-1.059122 20.38119-3.8814 7.582699-3.193739 16.086373-4.15667 23.777543-7.148817 8.812713-3.429099 17.441231-7.549953 25.660426-12.230556 10.128685-5.767354 20.020986-12.045337 29.504988-18.816554 7.02295-5.0142 13.746072-10.679223 19.690458-16.922415 11.363815-11.936867 22.647813-24.042579 32.832779-36.97103 5.536087-7.027044 9.149381-15.705704 12.904914-23.967878 4.960988-10.916631 10.41521-21.838378 13.449313-33.341363 3.437286-13.030781 5.495154-26.647917 6.223748-40.114626 0.935302-17.302061 0.064468-34.709523-0.293689-52.065819-0.079818-3.861958-1.199315-7.713682-1.956561-11.546987-0.692778-3.50687-1.808182-6.947226-2.278903-10.477632-2.349511-17.626449-7.737218-34.382065-14.205537-50.850132-4.196579-10.68434-8.05342-21.51399-12.618389-32.03767-2.318812-5.346775-5.915733-10.131755-8.846482-15.220656-3.288906-5.711072-6.073322-11.757788-9.79611-17.163915-7.586792-11.015891-14.908548-22.354124-23.692608-32.373315-15.096836-17.21815-30.965246-33.786501-46.982034-50.164516-31.534204-32.244378-63.297628-64.265676-95.148034-96.198969-22.218024-22.275329-44.648896-44.339858-67.149353-66.329684-17.274432-16.883529-34.819017-33.490765-52.219315-50.246381-13.125949-12.638855-26.214035-25.316595-39.318494-37.97694-17.745153-17.143449-35.505655-34.270525-53.207829-51.458999-1.422396-1.381463-2.14792-3.665483-3.742231-4.627391-1.364067-0.822738-4.320399-1.169639-5.183046-0.319272-6.751774 6.659677-13.031804 13.794168-19.712971 20.528546-21.459754 21.633716-42.943045 43.24799-64.590064 64.693418-12.682857 12.565177-25.814945 24.677029-38.533618 37.20639-18.055215 17.787108-35.93749 35.749202-53.852512 53.67855-17.793248 17.808598-35.504632 35.701107-53.308113 53.499471-17.928325 17.924231-35.956933 35.749202-53.886281 53.673433-18.044982 18.040888-36.435841 35.760458-53.907771 54.341652-16.390295 17.430998-32.133861 35.507702-47.457872 53.888328-7.886621 9.459442-14.870686 19.828604-21.109784 30.462802-6.53995 11.146874-11.748578 23.078625-17.442254 34.714639-2.88777 5.901407-6.01704 11.743462-8.219195 17.904789-2.611477 7.30743-4.348028 14.926968-6.451946 22.415522-0.596588 2.122337-1.196245 4.245697-1.711991 6.387477-1.147126 4.764514-2.38635 9.513678-3.325745 14.320147-1.333368 6.820336-2.921539 13.645788-3.511987 20.544919-0.809435 9.455349-1.541099 19.030425-0.935302 28.466332 0.812505 12.678764 2.333138 25.38618 4.686742 37.867446 1.806135 9.580193 5.194302 18.886139 8.218172 28.203342 1.868557 5.759167 4.266164 11.356652 6.620791 16.944927 2.227738 5.285377 4.266164 10.726296 7.170307 15.636119 6.269797 10.601452 12.644995 21.185508 19.73446 31.242562 5.556553 7.882528 11.811 15.392572 18.545378 22.299889 10.091846 10.350742 20.37198 20.642133 31.527041 29.794583 8.694009 7.133468 18.815531 12.537548 28.361955 18.61701 2.838651 1.807159 5.774517 3.5345 8.846482 4.892427 10.467399 4.628414 20.786419 9.753131 31.598672 13.390985 9.593496 3.227508 19.720134 4.980431 29.704532 6.89606 6.16542 1.182942 13.276375-0.132006 18.605753 2.462075 11.051707 5.378497 22.318308 2.331092 33.441647 3.173273 1.757017 0.13303 3.631714-1.155313 5.436826-1.826602 1.880837-0.698918 3.695159-1.88493 5.622044-2.092661 7.448646-0.802272 15.07023-0.608867 22.367427-2.075265 10.588149-2.12643 21.001313-5.198395 31.392988-8.197706 7.131421-2.057869 14.267958-4.278443 21.098527-7.148817 8.68787-3.65218 17.277502-7.65433 25.527396-12.19781 10.489912-5.777587 20.735253-12.034081 30.804586-18.521842 4.52506-2.915399 8.357342-6.904247 12.521175-10.385535 4.564969-3.815909 9.233292-7.513114 13.70207-11.438517 4.672416-4.103458 4.600785-7.203052 0.360204-10.908444-7.15291-6.251378-14.222933-12.600993-21.264303-18.978237-4.047176-3.665483-5.40408-3.27458-9.435906 0.01228-9.949606 8.110725-20.046568 16.078187-30.497595 23.52274-6.989181 4.978385-14.603603 9.110495-22.103414 13.326517-3.675716 2.067079-7.6574 3.659343-11.626805 5.119601-6.958482 2.560312-13.954827 5.052063-21.045315 7.210215-9.067516 2.759857-18.205641 5.308913-27.38879 7.653307-4.261047 1.087774-8.676613 1.792832-13.063527 2.131547-20.069081 1.547239-40.198537 1.938142-60.114123-1.1328-8.589632-1.325182-16.879436-4.76042-25.214265-7.516184-6.204305-2.051729-12.478196-4.107551-18.325367-6.969739-6.619768-3.240811-13.134135-6.92062-19.092847-11.239995-9.581216-6.945179-19.430538-13.803377-27.78788-22.089088-12.612249-12.502755-25.207102-25.264407-34.297131-40.774659-6.737448-11.496845-14.31503-22.753213-19.151176-35.048237-5.727445-14.561647-11.639085-29.418007-12.145621-45.525869-0.342808-10.886955-1.412163-21.810748-0.857531-32.650631 0.542352-10.616802 2.26867-21.239743 4.330632-31.691793 1.90028-9.628288 4.716418-19.097964 7.565303-28.505217 1.450025-4.787026 3.659343-9.382695 5.880941-13.889335 4.78191-9.698896 8.971325-19.827581 14.894222-28.794813 10.169617-15.395642 20.152992-31.251771 32.528857-44.799322 79.126128-86.621846 164.962076-166.661787 247.036349-250.403027 20.651342-21.070898 41.597397-41.85527 62.593594-62.58336 9.432837-9.312086 19.268856-18.218944 29.025057-27.198455 5.009084-4.609994 5.185093-4.296863 10.119475 0.611937 10.725272 10.670014 21.665439 21.12411 32.506345 31.677467 18.275225 17.790178 36.483936 35.648918 54.826699 53.369511 22.278399 21.522176 44.776809 42.817178 66.971297 64.425312 16.58677 16.148795 32.862455 32.618908 49.238424 48.982598 21.435195 21.419845 42.890856 42.819225 64.225767 64.338331 14.263865 14.385639 28.613688 28.703739 42.392506 43.545772 9.117658 9.82067 17.904789 20.078291 25.706475 30.952966 6.771217 9.438976 12.152784 19.908422 17.770735 30.131251 4.488221 8.167007 8.709359 16.513092 12.480242 25.031093 3.001357 6.779404 5.294586 13.890358 7.622608 20.946055 2.162246 6.55223 3.813862 13.272281 5.934153 19.839861 8.268314 25.615401 10.864442 51.984978 8.53642 78.585823-1.12666 12.876262-4.782933 25.64917-8.399297 38.148855-2.562359 8.859785-6.615675 17.35732-10.648524 25.705452-5.78475 11.973706-13.570063 22.666232-23.122627 31.951713-8.268314 8.037047-16.452717 16.213263-25.28078 23.605627-6.183839 5.177929-13.225209 9.410324-20.177552 13.573133-7.800663 4.670369-15.798824 9.063423-23.969924 13.047154-5.276167 2.572592-10.913561 4.561899-16.575514 6.147-7.506974 2.102894-15.118326 4.235464-22.826891 5.098111-7.740288 0.86674-15.654538 0.190335-23.49204 0.190335C740.950436 733.385389 740.934063 733.804944 740.918713 734.223476z"  horiz-adv-x="1024" />

    
    <glyph glyph-name="shichangfenxi" unicode="&#58900;" d="M173.960514 53.298739 271.058579 53.298739C287.994796 53.298739 301.721125 67.070267 301.721125 84.055501L301.721125 518.101953C301.721125 535.091363 287.992714 548.860804 271.058579 548.860804L173.960514 548.860804C157.024297 548.860804 143.297967 535.089275 143.297967 518.101953L143.297967 84.057588C143.295885 67.070267 157.024297 53.298739 173.960514 53.298739L173.960514 53.298739ZM485.89208 53.298739 582.990143 53.298739C599.926363 53.298739 613.652693 73.430855 613.652693 98.267636L613.652693 732.873079C613.652693 757.711948 599.924279 777.846154 582.990143 777.846154L485.89208 777.846154C468.957944 777.846154 455.229535 757.711948 455.229535 732.873079L455.229535 98.267636C455.229535 73.430855 468.955865 53.298739 485.89208 53.298739L485.89208 53.298739ZM797.823646 53.298739 894.921712 53.298739C911.857928 53.298739 925.584258 72.004632 925.584258 95.089432L925.584258 684.790708C925.584258 707.871332 911.855848 726.579312 894.921712 726.579312L797.823646 726.579312C780.88743 726.579312 767.1611 707.871332 767.1611 684.790708L767.1611 95.089432C767.159016 72.006719 780.88743 53.298739 797.823646 53.298739L797.823646 53.298739ZM39.384615 2.033983 1024 2.033983 1024-49.230769 39.384615-49.230769 39.384615 2.033983 39.384615 2.033983Z"  horiz-adv-x="1024" />

    
    <glyph glyph-name="brand" unicode="&#59113;" d="M510.542-95.981c-263.899 0-478.604 214.7-478.604 478.611 0 263.898 214.705 478.603 478.604 478.603 263.904 0 478.61-214.705 478.61-478.603-0.001-263.91-214.706-478.611-478.61-478.611v0zM510.542 821.951c-242.24 0-439.321-197.075-439.321-439.319 0-242.241 197.076-439.327 439.321-439.327 242.246 0 439.327 197.087 439.327 439.327 0 242.239-197.082 439.319-439.327 439.319v0zM431.718 385.453l3.275 9.338 29.441 83.787c6.919 19.695 25.607 32.925 46.497 32.925 20.884 0 39.572-13.23 46.509-32.95l32.703-93.1 34.626-0.687v250.702c0 5.006-2 9.831-5.552 13.401-3.561 3.552-8.379 5.53-13.396 5.53h-189.777c-10.463 0-18.953-8.467-18.953-18.93v-250.706l34.626 0.691zM689.268 345.527l-126.195 2.555-4.009 11.422-37.407 106.501c-1.603 4.528-5.901 7.594-10.732 7.594-4.828 0-9.137-3.066-10.746-7.594l-41.408-117.923-7.594-0.158-16.19-0.311-18.948-0.41-83.468-1.676c-4.861-0.102-9.117-3.263-10.604-7.879-1.488-4.626 0.114-9.665 4.009-12.582l100.484-75.401-36.519-119.394c-1.407-4.635 0.261-9.636 4.166-12.506 0.985-0.724 2.060-1.253 3.189-1.615 0.363-0.128 0.746-0.114 1.125-0.218 0.767-0.145 1.531-0.338 2.32-0.345 0.034 0 0.067-0.013 0.085-0.013 0.724 0 1.424 0.166 2.149 0.32 0.379 0.073 0.777 0.038 1.151 0.166 1.105 0.341 2.166 0.832 3.151 1.514l103.648 71.382 103.652-71.382c1.945-1.341 4.191-2 6.443-2 2.357 0 4.72 0.72 6.733 2.196 3.905 2.865 5.565 7.888 4.158 12.501l-36.541 119.394 100.514 75.401c3.872 2.916 5.475 7.961 3.99 12.582-1.491 4.617-5.743 7.776-10.607 7.878v0zM689.268 345.527z"  horiz-adv-x="1024" />

    
    <glyph glyph-name="fuliao" unicode="&#58940;" d="M771.855414 799.484175c0-13.548953 0-23.562285 0-35.335752-45.656084 0-90.447449-0.521901-135.223465 0.1535-41.706011 0.624234-83.396672 3.346305-125.09245 3.238855-9.675631-0.025583-21.679348-5.413441-28.643142-12.326068-126.453485-125.517134-252.410653-251.530585-378.173387-377.73847-25.383821-25.470804-24.70842-44.320632 0.997751-70.052386 113.871583-113.989267 227.79945-227.922251 341.819417-341.758017 24.790286-24.75447 44.596932-24.493519 69.893769 0.782851 124.826383 124.734283 249.749983 249.371349 373.865148 374.816849 8.278779 8.365762 14.106671 23.071084 14.275521 34.926418 1.202418 85.039125 0.644701 170.103833 0.644701 257.18451 5.612992 0 16.23009 0 30.843312 0 1.570819-49.539639 3.121171-100.271464 4.81479-150.998171 1.366152-40.851527 3.755639-81.697936 3.781222-122.544346 0.005117-10.504532-4.33894-23.848818-11.52275-31.094029-129.636057-130.771958-259.845181-260.970849-390.330605-390.893439-39.147674-38.98394-81.93842-40.437076-121.439145-1.473602-115.918253 114.342317-231.058772 229.482836-345.477839 345.324339-39.864008 40.355209-37.883855 83.376205 2.021086 123.322081 128.336421 128.454105 256.672843 256.913326 385.500465 384.87623 7.710828 7.654545 19.745246 15.733773 29.681827 15.626323C585.941058 804.524099 677.780243 801.776445 771.855414 799.484175zM719.987688 705.255504c0-11.793934 0-23.383201 0-36.55352-25.782921-8.631829-47.472503-22.87665-56.411333-51.739809-11.359017-36.681437 5.792075-75.951911 40.897577-90.90795 36.256753-15.447239 81.651886-1.386619 94.740339 35.105501 9.082097 25.332654 23.618568 23.777185 42.447929 21.884015 4.66129-45.635617-39.377924-93.732354-91.639634-100.772898-60.591655-8.166212-117.913756 33.8161-126.361385 92.540169C614.118583 641.158927 652.365722 693.563903 719.987688 705.255504zM721.236156 605.470124c80.444351 80.449468 158.760166 158.770399 237.173197 237.188547 7.327077-7.337311 15.360256-15.375606 21.239314-21.264898-78.740499-78.730265-158.033598-158.018248-236.359646-236.33918C738.264448 589.700535 729.448419 597.866747 721.236156 605.470124z"  horiz-adv-x="1024" />

    
    <glyph glyph-name="fabuxuqiu" unicode="&#58919;" d="M316.034305 250.909819c-16.969487 0-30.789237 13.821797-30.789237 30.79026 0 16.991999 13.820774 30.841426 30.789237 30.841426l376.865253 0c16.993023 0 30.813796-13.847379 30.813796-30.841426 0-16.968463-13.820774-30.79026-30.813796-30.79026L316.034305 250.909819 316.034305 250.909819zM311.444776 84.375945c-16.995069 0-30.815843 13.82282-30.815843 30.81482 0 16.968463 13.81975 30.815843 30.815843 30.815843l376.838647 0c16.994046 0 30.81482-13.847379 30.81482-30.815843 0-16.991999-13.820774-30.81482-30.81482-30.81482L311.444776 84.375945 311.444776 84.375945zM144.125003-128c-53.214992 0-83.21526 33.604352-83.21526 84.266196L60.909743 779.957077c0 48.669466 24.882714 90.86652 85.261872 90.86652l530.546402 0c12.982686 0 24.206308-6.936993 30.027897-18.554588 5.796006-11.631922 4.64274-24.785499-3.173273-35.168987-6.294356-8.419763-16.33913-13.45443-26.854625-13.45443l-442.508299 0c-19.617803 0-35.196617 0-47.888683 0l-25.255197 0c-7.945973 0-14.319124 0-19.984147 0l-13.034874 0.039909 0-864.495216 771.300674 0-0.024559 13.007245c-0.077771 19.433608-0.052189 33.910321-0.026606 52.241828l0 0.788969c0 11.120268 0.026606 23.813359 0.026606 40.1003L899.322931 534.450571c0 10.476609 4.982478 20.494777 13.323447 26.802436 6.033413 4.510734 12.955056 6.872524 20.062941 6.872524 16.231683 0 33.778314-12.863982 33.778314-33.662681l0-582.291926c0-25.308409-5.506411-44.662199-16.338107-57.485249-12.668531-15.030321-34.146705-22.686698-63.832817-22.686698L144.125003-128 144.125003-128zM824.397475 842.094276l7.867178 9.677407c6.531763 8.063653 15.448854 19.092847 20.928658 25.110911 9.31004 10.215666 22.107507 15.631002 37.004799 15.631002 9.335622 0 17.333784-2.085498 22.421662-3.843538 16.944927-5.820566 39.312354-25.387203 49.907667-43.612287 11.434423-19.709901 11.33107-39.969317-0.261966-55.599296-9.389858-12.745279-16.809851-22.212908-19.590174-25.675776l-7.107885-8.955976L824.397475 842.094276 824.397475 842.094276zM614.432439 423.870056c-6.242168 0-11.304464 1.952468-15.080463 5.810333-4.771677 4.889357-6.897084 12.285814-6.661723 23.248494 0.419556 18.712177 10.490935 77.614705 14.320147 90.099041 2.883677 9.388834 6.39771 17.873066 14.160511 28.691459 11.199063 15.552208 150.09139 199.605084 177.812755 236.347916l7.082302 9.360182L917.077294 730.214163l-6.738471-9.009188c-39.235606-52.267411-167.714769-223.508493-174.953637-232.766344-6.374174-8.157797-14.923898-16.194844-22.843264-21.4925-16.548908-11.106965-69.654406-36.911678-87.146802-41.475624C621.276311 424.393989 617.683483 423.870056 614.432439 423.870056L614.432439 423.870056 614.432439 423.870056z"  horiz-adv-x="1024" />

    
    <glyph glyph-name="jiantouyou" unicode="&#58906;" d="M133.240607-60.410626l-69.099774 67.271126 390.564253 378.87912L64.140833 764.606461l69.099774 67.275219L592.907705 385.739621 133.240607-60.410626zM496.768087-60.410626l-69.099774 67.271126 390.564253 378.87912L427.668313 764.606461 496.768087 831.880657l459.664028-446.14206L496.768087-60.410626z"  horiz-adv-x="1024" />

    
    <glyph glyph-name="huiyuan" unicode="&#59157;" d="M512-128C229.2224-128 0 101.2224 0 384 0 666.7776 229.2224 896 512 896 794.7776 896 1024 666.7776 1024 384 1024 101.2224 794.7776-128 512-128ZM819.2 588.8 563.2 588.8 563.2 486.4 597.1456 486.4C568.5248 416.6144 539.8528 347.904 512 282.4704 484.1472 347.904 455.4752 416.6144 426.8544 486.4L460.8 486.4 460.8 588.8 204.8 588.8 204.8 486.4 316.416 486.4C421.3248 229.4272 512 25.6 512 25.6 512 25.6 602.624 229.4272 707.584 486.4L819.2 486.4 819.2 588.8Z"  horiz-adv-x="1024" />

    
    <glyph glyph-name="yly_qiugou" unicode="&#58910;" d="M926.719 683.741457L912.121851 669.044327c-24.295255-24.295255-63.587581-24.195274-87.882835 0l-87.882836 87.882836c-24.295255 24.295255-24.295255 63.587581 0 87.882835L750.953329 859.407147c48.490529 48.490529 127.175161 48.490529 175.665691-0.09998 48.59051-48.490529 48.59051-127.075181 0.09998-175.56571zM897.424722 830.112869c-32.393673 32.393673-82.183948 34.993165-111.278266 5.898847l-8.798282-8.798281c-14.597149-14.597149-13.197422-39.492287 2.899434-55.589143l58.588557-58.588557c16.196837-16.196837 41.091974-17.496583 55.589143-2.899433l8.798281 8.798281c29.194298 28.994337 26.494825 78.784612-5.798867 111.178286zM663.170475 712.935755L428.916227 478.781488c-8.098418-8.098418-8.098418-21.19586 0-29.294278l87.782855-87.782855c8.098418-8.098418 21.19586-8.098418 29.294279 0l234.154266 234.154266c8.098418 8.098418 21.19586 7.998438 29.194298 0 8.098418-8.098418 8.098418-21.19586 0-29.194298L575.4876 332.410076c-24.295255-24.295255-63.587581-24.195274-87.882835 0l-87.882836 87.882836c-24.295255 24.295255-24.295255 63.587581 0 87.882835l234.154267 234.154267c8.098418 8.098418 21.19586 7.998438 29.194298 0 8.198399-8.198399 8.198399-21.295841 0.099981-29.394259zM494.403437 268.922476c3.299356-13.497364-5.099004-27.59461-18.696349-31.593829L278.045694 179.939855c-0.499902-0.09998-0.899824-0.199961-1.399726-0.299941-0.899824-0.199961-1.799649-0.399922-2.799454-0.499902-0.799844-0.09998-1.599688-0.09998-2.399531-0.199961h-2.499512c-0.899824 0.09998-1.799649 0.199961-2.699473 0.399922-0.499902 0.09998-0.899824 0.09998-1.399726 0.199961-0.299941 0.09998-0.499902 0.199961-0.799844 0.299941-0.899824 0.199961-1.699668 0.599883-2.499512 0.899824l-2.09959 0.899825c-0.699863 0.399922-1.399727 0.799844-1.999609 1.299746-0.699863 0.399922-1.399727 0.899824-1.99961 1.399726-0.599883 0.499902-1.199766 1.099785-1.699668 1.599688-0.599883 0.599883-1.099785 1.099785-1.599687 1.699668-0.499902 0.599883-0.899824 1.299746-1.399727 1.999609-0.399922 0.699863-0.899824 1.299746-1.299746 1.99961s-0.599883 1.399727-0.899824 2.09959c-0.299941 0.799844-0.699863 1.699668-0.899824 2.499512-0.09998 0.299941-0.199961 0.499902-0.299942 0.799843-0.09998 0.499902-0.09998 0.899824-0.199961 1.399727-0.199961 0.899824-0.299941 1.799649-0.399922 2.699473-0.09998 0.799844-0.09998 1.599688 0 2.399531 0 0.799844 0.09998 1.599688 0.199961 2.399531 0.09998 0.899824 0.299941 1.799649 0.499903 2.699473 0.09998 0.499902 0.09998 0.899824 0.299941 1.399727l57.388791 197.661394c3.999219 13.597344 18.096466 21.995704 31.59383 18.696348 13.497364-3.299356 21.19586-16.99668 17.196641-30.694005l-44.991213-154.869752 154.869752 44.991213c13.597344 4.29916 27.294669-3.399336 30.594025-16.8967z m38.792423 483.605546H144.071861V12.272603l73.685608 73.685608c10.697911 10.697911 25.694981 13.597344 39.392306 9.898067 3.199375 0.799844 6.39875 1.299746 9.798087 1.299746h573.38801V486.380004c0 22.595587 18.296426 40.991994 40.991994 40.991994 22.595587 0 40.991994-18.296426 40.991993-40.991994V97.256005c0-45.291154-36.692833-81.884007-81.884007-81.884007H266.947862c-1.299746 0-2.599492 0.299941-3.899239 0.399922l-127.175161-127.175162c-7.498535-9.998047-19.296231-16.596758-32.693614-16.596758h-0.299942c-0.799844 0-1.599688 0.199961-2.399531 0.199961-3.499317 0.199961-6.898653 0.899824-10.098028 1.999609-2.599492 0.799844-4.899043 1.899629-7.298574 3.199376-1.799649 0.999805-3.499317 2.09959-5.099004 3.399336-1.499707 1.099785-3.299356 1.699668-4.699083 3.099394-1.599688 1.599688-2.299551 3.599297-3.499316 5.298965-0.499902 0.599883-0.899824 1.299746-1.299746 1.99961-2.699473 4.29916-4.599102 8.698301-5.498926 13.497364v0.19996c-0.799844 3.899238-1.199766 7.698496-0.799844 11.697716V752.528022c0 45.191174 36.692833 81.884007 81.884007 81.884007H533.19586c22.595587 0 40.991994-18.296426 40.991994-40.991994 0-22.495606-18.396407-40.892013-40.991994-40.892013z"  horiz-adv-x="1024" />

    
    <glyph glyph-name="shouye" unicode="&#58901;" d="M843.51176-128H707.69576c-41.736 0-75.68 33.144-75.68 73.856V186.344c0 15.6-12.616 28.312-28.168 28.312H422.35976c-15.544 0-28.192-12.712-28.192-28.312v-240.488c0-40.72-33.128-73.856-73.832-73.856H186.51976c-40.704 0-73.832 33.144-73.832 73.856l0.192 448.16H30.54376a30.56 30.56 0 0 0-28.008 18.352 30.504 30.504 0 0 0 5.64 32.976l484.88 441.344c11.576 12.408 33.176 12.408 44.744 0l481.648-437.832a30.424 30.424 0 0 0 12.048-24.296 30.52 30.52 0 0 0-31.136-30.544h-82.328v-448.16c-0.008-40.712-33.448-73.856-74.52-73.856zM422.35976 275.752h181.496c49.216 0 89.256-40.096 89.256-89.408v-240.488c0-6.68 6.944-12.768 14.584-12.768h135.816c7.4 0 13.424 5.728 13.424 12.768V424.56a30.52 30.52 0 0 0 30.544 30.528h42.752L515.42376 821.04 100.67176 455.096h42.776a30.56 30.56 0 0 0 30.552-30.56l-0.208-478.704c0-7.008 5.712-12.736 12.736-12.736h133.816c7.024 0 12.736 5.728 12.736 12.768v240.48c0 49.312 40.04 89.408 89.28 89.408z"  horiz-adv-x="1031" />

    
    <glyph glyph-name="chuanzhongjianzhan" unicode="&#58943;" d="M967.784 866.319h-911.568c-31.047 0-56.216-25.169-56.216-56.216v-644.452c0.008-31.041 25.174-56.201 56.216-56.201 0 0 0 0 0 0h374.161v-103.884h-136.8c-10.047 0-24.932-8.266-33.881-16.725l-66.174-65.892c-7.094-6.708-9.542-15.954-6.248-24.235 3.131-7.866 10.7-11.872 19.753-11.872h618.051c9.053 0 16.621 5.001 19.753 12.882 3.295 8.281 0.846 18.091-6.292 24.843l-66.085 64.022c-8.964 8.489-23.849 16.978-33.896 16.978h-115.252v103.884h344.48c0 0 0 0 0 0 31.047 0 56.216 25.169 56.216 56.216 0 0 0 0 0 0v644.437c0 31.047-25.169 56.216-56.216 56.216 0 0 0 0 0 0zM738.556-24.116c4.482 0 11.843-4.23 14.648-6.886l54.257-52.476h-582.79l54.317 52.521c2.746 2.612 10.106 6.842 14.588 6.842h136.8v-18.402c0-7.732 7.109-14.054 14.841-14.054s14.841 6.322 14.841 14.054v18.402h133.565v-18.402c0-7.732 7.109-14.054 14.841-14.054s14.841 6.322 14.841 14.054v18.402h115.252zM593.623 5.565h-133.565v103.884h133.565v-103.884zM994.319 167.238c0-15.524-12.584-28.108-28.108-28.108l-908.422 0c-15.524-0-28.108 12.584-28.108 28.108v641.291c0 15.523 12.585 28.108 28.108 28.108h908.422c15.523 0 28.108-12.585 28.108-28.108v-641.291zM780.080 608.775c36.73 0 66.605 28.88 66.605 64.378s-29.874 64.378-66.605 64.378-66.619-28.88-66.619-64.378c0-11.739 3.517-22.617 9.216-32.1l-139.991-135.272-81.445 78.714-15.39-14.87 0.015-0.015-66.055-63.829-132.17 127.733c9.216 11.145 14.959 25.081 14.959 40.411 0 35.914-30.245 65.15-67.406 65.15s-67.406-29.221-67.406-65.15c0-35.914 30.245-65.15 67.406-65.15 13.431 0 25.897 3.918 36.419 10.492l132.808-128.356-132.808-128.356c-10.334 6.582-22.927 10.491-36.434 10.492-37.161-0-67.391-29.221-67.391-65.15s30.245-65.15 67.406-65.15 67.406 29.221 67.406 65.15c0 15.345-5.743 29.28-14.959 40.411l132.17 127.733 81.445-78.714 81.445 78.714 139.976-135.272c-5.761-9.205-9.188-20.382-9.217-32.359 0.001-35.24 29.89-64.12 66.621-64.12s66.605 28.88 66.605 64.378-29.874 64.378-66.605 64.378c-16.652-0.031-31.882-6.094-43.627-16.119l-138.378 133.983 138.522 133.862c11.66-9.936 26.897-15.984 43.547-15.998zM780.080 709.424c20.688 0 37.532-16.265 37.532-36.27s-16.844-36.27-37.532-36.27c-20.703 0-37.532 16.265-37.532 36.27s16.829 36.27 37.532 36.27zM235.208 636.883c-21.133 0-38.333 16.621-38.333 37.042s17.2 37.042 38.333 37.042 38.333-16.621 38.333-37.042-17.2-37.042-38.333-37.042zM235.208 270.855c-21.133 0-38.333 16.621-38.333 37.042s17.2 37.042 38.333 37.042 38.333-16.621 38.333-37.042-17.2-37.042-38.333-37.042zM780.080 344.94c20.688 0 37.532-16.265 37.532-36.27s-16.844-36.27-37.532-36.27c-20.703 0-37.532 16.265-37.532 36.27s16.829 36.27 37.532 36.27zM501.27 427.082l-66.055 63.829 66.055 63.829 66.041-63.829-66.041-63.829z"  horiz-adv-x="1024" />

    
    <glyph glyph-name="purchaseorder" unicode="&#58921;" d="M796.444-128h-568.889c-62.838 0-113.778 50.94-113.778 113.778l0 739.556c0 62.838 50.94 113.778 113.778 113.778h113.778v-170.667h341.333v170.667h113.778c0 0 0 0 0 0 62.838 0 113.778-50.94 113.778-113.778l-0-739.556c0-62.838-50.94-113.778-113.778-113.778 0 0 0 0 0 0zM312.889 497.778c-47.128 0-85.333-38.205-85.333-85.333 0-47.128 38.205-85.333 85.333-85.333 47.128 0 85.333 38.205 85.333 85.333 0 47.128-38.205 85.333-85.333 85.333-0 0-0 0-0 0zM312.889 213.333c-47.128 0-85.333-38.205-85.333-85.333s38.205-85.333 85.333-85.333c47.128 0 85.333 38.205 85.333 85.333 0 47.128-38.205 85.333-85.333 85.333 0 0 0 0 0 0zM768 497.778h-284.444c-15.709 0-28.444-12.735-28.444-28.444s12.735-28.444 28.444-28.444l284.444 0c15.709-0 28.444 12.735 28.444 28.444s-12.735 28.444-28.444 28.444zM768 384h-284.444c-15.709-0-28.444-12.735-28.444-28.444 0-15.709 12.735-28.444 28.444-28.444l284.444-0c15.709 0 28.444 12.735 28.444 28.444s-12.735 28.444-28.444 28.444zM768 213.333h-284.444c-15.709-0-28.444-12.735-28.444-28.444 0-15.709 12.735-28.444 28.444-28.444l284.444-0c15.709 0 28.444 12.735 28.444 28.444 0 15.709-12.735 28.444-28.444 28.444zM768 99.556h-284.444c-15.709-0-28.444-12.735-28.444-28.444 0-15.709 12.735-28.444 28.444-28.444l284.444-0c15.709 0 28.444 12.735 28.444 28.444 0 15.709-12.735 28.444-28.444 28.444zM568.889 725.333h-113.778c-31.419 0-56.889 25.47-56.889 56.889 0 0 0 0 0 0v56.889c0 31.419 25.47 56.889 56.889 56.889h113.778c31.419 0 56.889-25.47 56.889-56.889v-56.889c0-31.419-25.47-56.889-56.889-56.889z"  horiz-adv-x="1024" />

    
    <glyph glyph-name="qiyejianzhan" unicode="&#59182;" d="M842.666667 369.066667c-4.266667 0-8.533333 0-12.8 2.133333h-2.133334c-2.133333 0-4.266667 0-6.4 2.133333-8.533333 2.133333-14.933333 4.266667-23.466666 6.4v-266.666666H234.666667V379.733333c-6.4-2.133333-14.933333-4.266667-23.466667-6.4-2.133333 0-4.266667 0-6.4-2.133333h-2.133333c-4.266667 0-8.533333-2.133333-12.8-2.133333h-14.933334c-10.666667 0-19.2 0-27.733333 2.133333v-288c0-23.466667 19.2-42.666667 42.666667-42.666667h650.666666c23.466667 0 42.666667 19.2 42.666667 42.666667V371.2c-8.533333-2.133333-19.2-2.133333-27.733333-2.133333h-12.8zM556.8 313.6h-12.8c-2.133333-8.533333-2.133333-14.933333-2.133333-14.933333-2.133333 10.666667-10.666667 17.066667-23.466667 17.066666-27.733333-2.133333-42.666667-19.2-44.8-51.2 0-25.6 10.666667-38.4 29.866667-38.4 17.066667 0 27.733333 8.533333 34.133333 23.466667-2.133333-14.933333 4.266667-23.466667 19.2-23.466667 27.733333 2.133333 42.666667 19.2 44.8 55.466667-2.133333 46.933333-29.866667 70.4-81.066667 72.533333-53.333333-4.266667-83.2-32-85.333333-85.333333 2.133333-51.2 29.866667-76.8 85.333333-78.933333 27.733333 0 51.2 8.533333 68.266667 25.6l-4.266667 6.4c-14.933333-14.933333-36.266667-21.333333-61.866666-21.333334-46.933333 2.133333-70.4 25.6-72.533334 68.266667 2.133333 46.933333 27.733333 72.533333 72.533334 74.666667 42.666667-2.133333 66.133333-23.466667 66.133333-61.866667-2.133333-27.733333-10.666667-42.666667-27.733333-44.8-8.533333-2.133333-12.8 6.4-10.666667 21.333333 0 4.266667 2.133333 23.466667 6.4 55.466667z m-17.066667-38.4c0-4.266667 0-6.4-2.133333-8.533333-2.133333-8.533333-4.266667-17.066667-10.666667-21.333334-4.266667-6.4-10.666667-8.533333-19.2-8.533333-14.933333 0-21.333333 8.533333-21.333333 27.733333 0 12.8 4.266667 23.466667 8.533333 29.866667 6.4 6.4 12.8 10.666667 23.466667 10.666667 14.933333-2.133333 21.333333-8.533333 21.333333-23.466667v-6.4zM891.733333 678.4C878.933333 718.933333 844.8 746.666667 802.133333 746.666667H232.533333c-42.666667 0-76.8-27.733333-87.466666-68.266667h-2.133334L64 524.8c0-64 51.2-113.066667 113.066667-113.066667s113.066667 51.2 113.066666 113.066667c0-64 51.2-113.066667 113.066667-113.066667s113.066667 51.2 113.066667 113.066667c0-64 51.2-113.066667 113.066666-113.066667s113.066667 51.2 113.066667 113.066667c0-64 51.2-113.066667 113.066667-113.066667s113.066667 51.2 113.066666 113.066667l-76.8 153.6z"  horiz-adv-x="1024" />

    
    <glyph glyph-name="hezuo" unicode="&#58970;" d="M1004.8 548.266667l-181.333333 181.333333c-25.6 25.6-66.133333 25.6-89.6 0l-130.133334-130.133333-192 194.133333c-25.6 25.6-66.133333 25.6-89.6 0L19.2 490.666667c-25.6-25.6-25.6-66.133333 0-91.733334l422.4-422.4c25.6-25.6 66.133333-25.6 89.6 0L834.133333 277.333333c6.4 6.4 10.666667 12.8 12.8 21.333334l157.866667 157.866666c25.6 25.6 25.6 66.133333 0 91.733334z m-198.4-234.666667c0-2.133333-2.133333-4.266667-4.266667-6.4l-44.8-44.8-196.266666 196.266667c-8.533333 8.533333-21.333333 8.533333-29.866667 0-8.533333-8.533333-8.533333-21.333333 0-29.866667l196.266667-196.266667-59.733334-59.733333-270.933333 270.933333c-8.533333 8.533333-21.333333 8.533333-29.866667 0-8.533333-8.533333-8.533333-21.333333 0-29.866666l270.933334-273.066667-61.866667-59.733333-196.266667 196.266666c-8.533333 8.533333-21.333333 8.533333-29.866666 0-8.533333-8.533333-8.533333-21.333333 0-29.866666l196.266666-196.266667-44.8-44.8c-8.533333-8.533333-21.333333-8.533333-29.866666 0L49.066667 428.8c-8.533333 8.533333-8.533333 21.333333 0 29.866667L349.866667 761.6c8.533333 8.533333 21.333333 8.533333 29.866666 0l206.933334-209.066667 14.933333-14.933333 200.533333-200.533333c4.266667-4.266667 6.4-10.666667 6.4-17.066667 0-2.133333 0-4.266667-2.133333-6.4z m168.533333 172.8l-132.266666-132.266667c-2.133333 4.266667-6.4 8.533333-10.666667 12.8l-200.533333 200.533334 130.133333 130.133333c8.533333 8.533333 21.333333 8.533333 29.866667 0l181.333333-181.333333c10.666667-6.4 10.666667-21.333333 2.133333-29.866667z"  horiz-adv-x="1024" />

    
    <glyph glyph-name="diqiu" unicode="&#59017;" d="M523.377778-59.733333C278.755556-59.733333 79.644444 139.377778 79.644444 384c0 244.622222 199.111111 443.733333 443.733334 443.733333S967.111111 628.622222 967.111111 384c0-244.622222-199.111111-443.733333-443.733333-443.733333z m0 849.54074C299.614815 789.807407 117.57037 607.762963 117.57037 384c0-223.762963 182.044444-405.807407 405.807408-405.807407C747.140741-21.807407 929.185185 160.237037 929.185185 384c0 223.762963-182.044444 405.807407-405.807407 405.807407zM523.377778-59.733333c-127.051852 0-225.659259 195.318519-225.659259 443.733333 0 248.414815 98.607407 443.733333 225.659259 443.733333S749.037037 632.414815 749.037037 384c0-248.414815-100.503704-443.733333-225.659259-443.733333z m0 849.54074c-102.4 0-187.733333-185.837037-187.733334-405.807407 0-219.97037 85.333333-405.807407 187.733334-405.807407s187.733333 185.837037 187.733333 405.807407c0 219.97037-87.22963 405.807407-187.733333 405.807407zM523.377778 543.288889c-117.57037 0-235.140741 30.340741-339.437037 87.22963-9.481481 5.688889-13.274074 17.066667-7.585185 26.548148 5.688889 9.481481 17.066667 13.274074 26.548148 7.585185 96.711111-53.096296 208.592593-81.540741 320.474074-81.540741 113.777778 0 223.762963 28.444444 322.37037 83.437037 9.481481 5.688889 20.859259 1.896296 26.548148-7.585185 5.688889-9.481481 1.896296-20.859259-7.585185-26.548148-104.296296-58.785185-221.866667-89.125926-341.333333-89.125926zM197.214815 90.074074c-7.585185 0-13.274074 3.792593-17.066667 9.481482-5.688889 9.481481-1.896296 20.859259 7.585185 26.548148 102.4 54.992593 218.074074 85.333333 333.748148 85.333333 115.674074 0 231.348148-28.444444 333.748149-83.437037 9.481481-5.688889 13.274074-17.066667 7.585185-26.548148-5.688889-9.481481-17.066667-13.274074-26.548148-7.585185-96.711111 53.096296-204.8 79.644444-314.785186 79.644444-109.985185 0-219.97037-28.444444-316.681481-79.644444-1.896296-3.792593-3.792593-3.792593-7.585185-3.792593zM948.148148 361.244444H98.607407c-11.377778 0-18.962963 7.585185-18.962963 18.962963s7.585185 18.962963 18.962963 18.962963H948.148148c11.377778 0 18.962963-7.585185 18.962963-18.962963s-9.481481-18.962963-18.962963-18.962963z"  horiz-adv-x="1024" />

    
    <glyph glyph-name="zhantingzhanguanchuangxinyingyong" unicode="&#58885;" d="M871.4 832.1H560.5c-38 0-68.9-31.7-68.9-70.7v-264.7H91.9c-5.6 0-10.1-4.5-10.1-10.1v-540.2c0-5.6 4.5-10.1 10.1-10.1h475c5.6 0 10.1 4.5 10.1 10.1V-45h294.4c38 0 68.9 31.7 68.9 70.7V761.5c-0.1 38.9-31 70.6-68.9 70.6zM798.3 812c-0.7-17.7-14.7-31.8-31.9-31.8H665.5c-17.2 0-31.2 14.1-31.9 31.8h164.7zM436.1 40H222.6v17.9h213.5V40z m-213.5-10h213.5v-73.4H222.6V30z m334.2-73.4H446.2V62.9c0 2.8-2.3 5-5 5H217.6c-2.8 0-5-2.3-5-5v-106.4H101.9V476.7h454.9v-520.1zM577 188.3h64v-92.4h-64v92.4z m0 139.7h64v-92.4h-64V328z m0 139.7h64v-92.4h-64v92.4z m343.1-442c0-27.9-21.9-50.5-48.7-50.5H577V85.8h69.1c2.8 0 5 2.3 5 5V193.3c0 2.8-2.3 5-5 5H577v27.2h69.1c2.8 0 5 2.3 5 5V333.1c0 2.8-2.3 5-5 5H577v27.2h69.1c2.8 0 5 2.3 5 5V472.8c0 2.8-2.3 5-5 5H577v8.9c0 5.6-4.5 10.1-10.1 10.1h-55.1V761.5c0 27.9 21.9 50.5 48.7 50.5h53c0.7-28.8 23.8-51.9 52.1-51.9h100.8c28.3 0 51.3 23.2 52.1 51.9h53c26.9 0 48.7-22.7 48.7-50.5v-735.8zM777.1-3.6H654.7c-2.8 0-5-2.3-5-5s2.3-5 5-5h122.4c2.8 0 5 2.3 5 5s-2.2 5-5 5zM268.8 561.5c3.4 0 6.6 1.7 8.5 4.6 6.8 10.7 66.8 105.2 66.8 143.1 0 41.5-33.8 75.3-75.3 75.3s-75.3-33.8-75.3-75.3c0-37.9 60-132.4 66.8-143.1 1.9-2.8 5.1-4.6 8.5-4.6z m0 202.9c30.4 0 55.1-24.7 55.1-55.1 0-23.5-34.4-84.7-55.1-118.6-20.7 33.9-55.1 95.2-55.1 118.6 0 30.4 24.7 55.1 55.1 55.1zM301.8 710.3c0 18.2-14.8 33-33 33s-33-14.8-33-33 14.8-33 33-33 33 14.8 33 33z m-55.9 0c0 12.6 10.3 22.9 22.9 22.9 12.6 0 22.9-10.3 22.9-22.9 0-12.6-10.3-22.9-22.9-22.9-12.6 0-22.9 10.3-22.9 22.9zM129.1 97.5h65.2c2.8 0 5 2.3 5 5v86.2c0 2.8-2.3 5-5 5h-65.2c-2.8 0-5-2.3-5-5v-86.2c0-2.8 2.2-5 5-5z m5.1 86.1h55.1v-76.1h-55.1v76.1zM240.9 97.5h65.2c2.8 0 5 2.3 5 5v86.2c0 2.8-2.3 5-5 5h-65.2c-2.8 0-5-2.3-5-5v-86.2c0-2.8 2.2-5 5-5z m5 86.1H301v-76.1h-55.1v76.1zM417.9 193.7h-65.2c-2.8 0-5-2.3-5-5v-86.2c0-2.8 2.3-5 5-5h65.2c2.8 0 5 2.3 5 5v86.2c0 2.8-2.2 5-5 5z m-5.1-86.1h-55.1v76.1h55.1v-76.1zM464.4 97.5h65.2c2.8 0 5 2.3 5 5v86.2c0 2.8-2.3 5-5 5h-65.2c-2.8 0-5-2.3-5-5v-86.2c0-2.8 2.3-5 5-5z m5.1 86.1h55.1v-76.1h-55.1v76.1zM129.1 218.6h65.2c2.8 0 5 2.3 5 5v86.2c0 2.8-2.3 5-5 5h-65.2c-2.8 0-5-2.3-5-5v-86.2c0-2.8 2.2-5 5-5z m5.1 86.1h55.1v-76.1h-55.1v76.1zM240.9 218.6h177c2.8 0 5 2.3 5 5v86.2c0 2.8-2.3 5-5 5h-177c-2.8 0-5-2.3-5-5v-86.2c0-2.8 2.2-5 5-5z m5 86.1h166.9v-76.1H245.9v76.1zM464.4 218.6h65.2c2.8 0 5 2.3 5 5v86.2c0 2.8-2.3 5-5 5h-65.2c-2.8 0-5-2.3-5-5v-86.2c0-2.8 2.3-5 5-5z m5.1 86.1h55.1v-76.1h-55.1v76.1zM129.1 339.7h65.2c2.8 0 5 2.3 5 5v86.2c0 2.8-2.3 5-5 5h-65.2c-2.8 0-5-2.3-5-5v-86.2c0-2.8 2.2-5 5-5z m5.1 86.1h55.1v-76.1h-55.1v76.1zM240.9 339.7h65.2c2.8 0 5 2.3 5 5v86.2c0 2.8-2.3 5-5 5h-65.2c-2.8 0-5-2.3-5-5v-86.2c0-2.8 2.2-5 5-5z m5 86.1H301v-76.1h-55.1v76.1zM352.7 339.7h65.2c2.8 0 5 2.3 5 5v86.2c0 2.8-2.3 5-5 5h-65.2c-2.8 0-5-2.3-5-5v-86.2c-0.1-2.8 2.2-5 5-5z m5 86.1h55.1v-76.1h-55.1v76.1zM464.4 339.7h65.2c2.8 0 5 2.3 5 5v86.2c0 2.8-2.3 5-5 5h-65.2c-2.8 0-5-2.3-5-5v-86.2c0-2.8 2.3-5 5-5z m5.1 86.1h55.1v-76.1h-55.1v76.1zM129.1-7.3h65.2c2.8 0 5 2.3 5 5v65.2c0 2.8-2.3 5-5 5h-65.2c-2.8 0-5-2.3-5-5v-65.2c0-2.7 2.2-5 5-5z m5.1 65.2h55.1v-55.1h-55.1v55.1zM464.4-7.3h65.2c2.8 0 5 2.3 5 5v65.2c0 2.8-2.3 5-5 5h-65.2c-2.8 0-5-2.3-5-5v-65.2c0-2.7 2.3-5 5-5z m5.1 65.2h55.1v-55.1h-55.1v55.1zM888.3 720H543.6c-2.8 0-5-2.3-5-5v-186.3c0-2.8 2.3-5 5-5h344.6c2.8 0 5 2.3 5 5V715c0.1 2.7-2.2 5-4.9 5z m-309-186.3l66.8 89 51.9-69.1c0.9-1.3 2.4-2 4-2s3.1 0.7 4 2l79.4 105.9L864 533.7H579.3z m303.9 0h-7.3L790.1 671c-0.9 1.4-2.4 2.3-4.1 2.4-1.6 0.1-3.2-0.7-4.2-2L702 565l-51.9 69.1c-0.9 1.3-2.4 2-4 2s-3.1-0.7-4-2l-75.3-100.4h-18.1V709.9h334.6v-176.2zM627.4 644.7c13 0 23.7 10.6 23.7 23.7S640.5 692 627.4 692s-23.7-10.6-23.7-23.7 10.7-23.6 23.7-23.6z m0 37.3c7.5 0 13.6-6.1 13.6-13.6s-6.1-13.6-13.6-13.6-13.6 6.1-13.6 13.6S620 682 627.4 682zM869.6 459.2H683.3c-2.8 0-5-2.3-5-5 0-2.8 2.3-5 5-5h186.3c2.8 0 5 2.3 5 5 0.1 2.7-2.2 5-5 5zM683.3 411.9H823c2.8 0 5 2.3 5 5 0 2.8-2.3 5-5 5H683.3c-2.8 0-5-2.3-5-5 0-2.8 2.3-5 5-5zM869.6 319.5H683.3c-2.8 0-5-2.3-5-5s2.3-5 5-5h186.3c2.8 0 5 2.3 5 5s-2.2 5-5 5zM683.3 272.1H823c2.8 0 5 2.3 5 5s-2.3 5-5 5H683.3c-2.8 0-5-2.3-5-5s2.3-5 5-5zM869.6 179.7H683.3c-2.8 0-5-2.3-5-5s2.3-5 5-5h186.3c2.8 0 5 2.3 5 5s-2.2 5-5 5zM823.1 142.5H683.3c-2.8 0-5-2.3-5-5s2.3-5 5-5H823c2.8 0 5 2.3 5 5s-2.2 5-4.9 5z"  horiz-adv-x="1024" />

    
    <glyph glyph-name="kujialeqiyezhan_shengchanzidonghua" unicode="&#58955;" d="M851.2 480h-28.8l-9.6 27.2-12.8 27.2 22.4 22.4a43.2 43.2 0 0 1 12.8 32 43.2 43.2 0 0 1-12.8 30.4l-72 72A43.2 43.2 0 0 1 720 704a46.4 46.4 0 0 1-32-12.8l-24-22.4-27.2 12.8-28.8 9.6v32A44.8 44.8 0 0 1 563.2 768h-102.4a44.8 44.8 0 0 1-44.8-44.8v-32l-28.8-9.6-27.2-12.8-24 22.4a44.8 44.8 0 0 1-62.4 0l-72-72a44.8 44.8 0 0 1 0-62.4l22.4-22.4-12.8-27.2-9.6-27.2h-28.8A44.8 44.8 0 0 1 128 435.2v-102.4a44.8 44.8 0 0 1 44.8-44.8h32l9.6-28.8 12.8-27.2-22.4-24a44.8 44.8 0 0 1 0-62.4l72-73.6a44.8 44.8 0 0 1 32-12.8 43.2 43.2 0 0 1 30.4 12.8l22.4 24 27.2-12.8 27.2-9.6V48a16 16 0 0 1 3.2-9.6 48 48 0 0 1 41.6-38.4h107.2c24 3.2 36.8 33.6 40 40a16 16 0 0 1 1.6 6.4v27.2l27.2 9.6 27.2 12.8 22.4-22.4a43.2 43.2 0 0 1 32-12.8 43.2 43.2 0 0 1 30.4 12.8l72 73.6a44.8 44.8 0 0 1 0 62.4l-22.4 24 11.2 24h1.6l9.6 28.8h32a44.8 44.8 0 0 1 43.2 46.4v102.4a44.8 44.8 0 0 1-44.8 44.8z m12.8-147.2a12.8 12.8 0 0 0-12.8-12.8h-43.2a16 16 0 0 1-16-12.8 283.2 283.2 0 0 0-11.2-35.2h-1.6l-16-33.6a16 16 0 0 1 3.2-19.2l30.4-32a12.8 12.8 0 0 0 0-17.6L724.8 96a11.2 11.2 0 0 0-8-3.2 11.2 11.2 0 0 0-8 3.2l-32 32a16 16 0 0 1-19.2 1.6l-33.6-16-36.8-12.8a16 16 0 0 1-11.2-16V48a44.8 44.8 0 0 0-12.8-17.6H464a16 16 0 0 0-12.8 16 16 16 0 0 1-1.6 8v32a16 16 0 0 1-11.2 16l-35.2 12.8-35.2 16a16 16 0 0 1-19.2-1.6l-32-32-8-3.2-8 3.2-72 73.6a12.8 12.8 0 0 0 0 17.6l32 32a16 16 0 0 1 1.6 19.2 227.2 227.2 0 0 0-16 33.6 344 344 0 0 0-12.8 36.8 16 16 0 0 1-16 11.2h-44.8a12.8 12.8 0 0 0-12.8 12.8v100.8a12.8 12.8 0 0 0 12.8 12.8h41.6a16 16 0 0 1 16 11.2 331.2 331.2 0 0 0 12.8 35.2 244.8 244.8 0 0 0 16 33.6 16 16 0 0 1-1.6 19.2l-32 32a12.8 12.8 0 0 0 0 17.6l72 72a12.8 12.8 0 0 0 17.6 0l32-30.4a16 16 0 0 1 19.2-3.2l33.6 16 36.8 12.8a16 16 0 0 1 12.8 16v43.2a12.8 12.8 0 0 0 12.8 12.8h102.4a12.8 12.8 0 0 0 12.8-12.8v-43.2a16 16 0 0 1 12.8-16l35.2-12.8 33.6-16a16 16 0 0 1 19.2 3.2l32 32 8 3.2 8-3.2 73.6-73.6a11.2 11.2 0 0 0 3.2-8 12.8 12.8 0 0 0-3.2-8l-32-32a16 16 0 0 1-3.2-19.2 321.6 321.6 0 0 0 16-33.6 276.8 276.8 0 0 0 12.8-35.2 16 16 0 0 1 16-11.2h41.6a12.8 12.8 0 0 0 12.8-11.2zM512 560a176 176 0 1 1 176-176 176 176 0 0 1-176 176z m0-320a144 144 0 1 0 144 144 144 144 0 0 0-144-144z"  horiz-adv-x="1024" />

    
    <glyph glyph-name="huangguan" unicode="&#59047;" d="M968.533333 537.6c-8.533333 4.266667-19.2 2.133333-25.6-6.4l-108.8-130.133333-55.466666 100.266666c-4.266667 6.4-8.533333 10.666667-17.066667 10.666667-6.4 0-12.8-2.133333-19.2-6.4l-64-70.4-87.466667 164.266667 38.4 23.466666c6.4 4.266667 10.666667 10.666667 10.666667 19.2V768c0 8.533333-4.266667 14.933333-10.666667 19.2l-106.666666 64c-6.4 4.266667-14.933333 4.266667-21.333334 0l-106.666666-64c-6.4-4.266667-10.666667-10.666667-10.666667-19.2v-128c0-8.533333 4.266667-14.933333 10.666667-19.2l38.4-23.466667-87.466667-164.266666-61.866667 70.4c-6.4 6.4-12.8 8.533333-19.2 8.533333-6.4 0-12.8-4.266667-17.066666-10.666667l-57.6-100.266666L81.066667 533.333333c-6.4 8.533333-17.066667 10.666667-25.6 6.4-8.533333-6.4-14.933333-14.933333-12.8-25.6L138.666667 42.666667l-21.333334-102.4c-2.133333-6.4 0-12.8 4.266667-17.066667 4.266667-6.4 10.666667-8.533333 17.066667-8.533333h744.533333c6.4 0 12.8 2.133333 17.066667 8.533333 4.266667 4.266667 6.4 10.666667 4.266666 17.066667l-19.2 102.4L981.333333 514.133333c2.133333 8.533333-4.266667 19.2-12.8 23.466667z m-211.2-83.2l49.066667-87.466667-55.466667-64-49.066666 91.733334 55.466666 59.733333zM426.666667 652.8V755.2l85.333333 51.2 85.333333-51.2v-104.533333l-85.333333-51.2-85.333333 53.333333z m-155.733334-198.4l53.333334-59.733333-49.066667-91.733334-53.333333 64 49.066666 87.466667zM164.266667-42.666667l8.533333 42.666667h676.266667l8.533333-42.666667H164.266667z m678.4 89.6v-4.266666h-661.333334v4.266666L102.4 441.6l160-189.866667c4.266667-6.4 10.666667-8.533333 19.2-8.533333 6.4 0 12.8 4.266667 17.066667 10.666667l170.666666 324.266666 32-19.2c2.133333-4.266667 6.4-4.266667 10.666667-4.266666s8.533333 0 10.666667 2.133333L554.666667 576l172.8-322.133333c4.266667-6.4 8.533333-10.666667 17.066666-10.666667 6.4 0 14.933333 2.133333 19.2 8.533333l160 189.866667-81.066666-394.666667zM490.666667 149.333333h42.666666v106.666667h-42.666666v-106.666667z"  horiz-adv-x="1024" />

    
    <glyph glyph-name="fangdichanjianzhu" unicode="&#58893;" d="M617.984-128H84.992c-17.92 0-31.744 14.336-31.744 32.256V863.744c0 17.92 14.336 32.256 31.744 32.256h533.504c17.92 0 32.256-14.336 32.256-32.256v-960c-0.512-17.408-14.848-31.744-32.768-31.744z m-501.248 64h469.504v896H116.736v-896zM290.816 653.312H216.576c-17.92 0-32.256 14.336-32.256 32.256s14.336 32.256 32.256 32.256h74.752c17.92 0 32.256-14.336 32.256-32.256s-14.848-32.256-32.768-32.256zM486.4 653.312H412.16c-17.92 0-32.256 14.336-32.256 32.256s14.336 32.256 32.256 32.256H486.4c17.92 0 32.256-14.336 32.256-32.256s-14.336-32.256-32.256-32.256zM290.816 500.736H216.576c-17.92 0-32.256 14.336-32.256 32.256s14.336 32.256 32.256 32.256h74.752c17.92 0 32.256-14.336 32.256-32.256s-14.848-32.256-32.768-32.256zM486.4 500.736H412.16c-17.92 0-32.256 14.336-32.256 32.256s14.336 32.256 32.256 32.256H486.4c17.92 0 32.256-14.336 32.256-32.256s-14.336-32.256-32.256-32.256zM290.816 348.16H216.576c-17.92 0-32.256 14.336-32.256 32.256s14.336 32.256 32.256 32.256h74.752c17.92 0 32.256-14.336 32.256-32.256s-14.848-32.256-32.768-32.256zM486.4 348.16H412.16c-17.92 0-32.256 14.336-32.256 32.256s14.336 32.256 32.256 32.256H486.4c17.92 0 32.256-14.336 32.256-32.256S504.32 348.16 486.4 348.16zM290.816 195.072H216.576c-17.92 0-32.256 14.336-32.256 32.256s14.336 31.744 32.256 31.744h74.752c17.92 0 32.256-14.336 32.256-31.744-0.512-17.92-14.848-32.256-32.768-32.256zM486.4 195.072H412.16c-17.92 0-32.256 14.336-32.256 32.256s14.336 31.744 32.256 31.744H486.4c17.92 0 32.256-14.336 32.256-31.744 0-17.92-14.336-32.256-32.256-32.256zM290.816 42.496H216.576c-17.92 0-32.256 14.336-32.256 32.256s14.336 32.256 32.256 32.256h74.752c17.92 0 32.256-14.336 32.256-32.256s-14.848-32.256-32.768-32.256zM486.4 42.496H412.16c-17.92 0-32.256 14.336-32.256 32.256s14.336 32.256 32.256 32.256H486.4c17.92 0 32.256-14.336 32.256-32.256s-14.336-32.256-32.256-32.256zM939.008-128h-320c-17.92 0-32.256 14.336-32.256 32.256s14.336 32.256 32.256 32.256h287.744L906.24 609.28l-294.912 80.384c-16.896 4.608-27.136 22.016-22.528 39.424 4.608 16.896 22.016 27.136 39.424 22.528l318.464-87.04c13.824-3.584 23.552-16.384 23.552-30.72l1.024-729.6c0-8.704-3.584-16.896-9.216-22.528-6.144-6.144-14.336-9.728-23.04-9.728zM992.256-128H32.256c-17.92 0-32.256 14.336-32.256 32.256s14.336 32.256 32.256 32.256h960c17.92 0 32.256-14.336 32.256-32.256s-14.848-32.256-32.256-32.256z"  horiz-adv-x="1024" />

    
    <glyph glyph-name="zhuangshipin" unicode="&#58883;" d="M512.690875-127.99935a202.280506 202.280506 0 0 0-164.977674 85.577089 201.792888 201.792888 0 0 0-240.233498 242.265243 201.711618 201.711618 0 0 0-5.201266 353.848664 201.792888 201.792888 0 0 0 240.802386 249.823333 201.792888 201.792888 0 0 0 334.912804 6.420314 201.792888 201.792888 0 0 0 240.396038-243.809369A201.549078 201.549078 0 0 0 1024.040391 392.127304a201.06146 201.06146 0 0 0-101.668507-178.793537 201.711618 201.711618 0 0 0-240.396038-249.335715A200.81765 200.81765 0 0 0 512.690875-127.99935z m-142.709751 143.03483l9.833644-17.147926a152.949744 152.949744 0 0 1 268.921734 5.932695l9.671105 18.692052 19.911099-6.826663A153.031014 153.031014 0 0 1 869.627791 216.747098l-8.126979 21.942843 21.699034 9.427296A152.380856 152.380856 0 0 1 975.278517 391.070797 152.868474 152.868474 0 0 1 879.867784 530.285946l-21.699034 8.777138 8.126979 22.105383A153.031014 153.031014 0 0 1 674.580296 758.491516l-18.935861-6.257774-9.833645 17.391735a153.031014 153.031014 0 0 1-269.490623-5.851425l-9.589835-18.854591-19.992368 6.826662A153.031014 153.031014 0 0 1 154.453642 550.359585l8.777137-22.105383-21.536494-9.346026a152.949744 152.949744 0 0 1 3.90095-282.981408l21.861573-8.614597-8.126979-22.186653a153.031014 153.031014 0 0 1 191.552894-196.185272zM512.040716 122.311602a263.395388 263.395388 0 0 0-59.245676 6.745393 260.713485 260.713485 0 0 0-189.43988 330.768044 253.155395 253.155395 0 0 0 18.448242 44.292035A259.494438 259.494438 0 0 0 386.722701 610.743038a255.837298 255.837298 0 0 0 56.888852 23.080621 260.063327 260.063327 0 0 0 293.465211-120.441829 254.536981 254.536981 0 0 0 21.373954-46.648859 262.095072 262.095072 0 0 0 2.844443-159.532597 265.508403 265.508403 0 0 0-19.911098-47.867906 261.038564 261.038564 0 0 0-102.399935-104.025331A260.063327 260.063327 0 0 0 512.040716 122.311602z m-48.192985 54.20695a213.658277 213.658277 0 0 1 102.074856 1.544126 203.743363 203.743363 0 0 1 49.168222 19.829829 211.301453 211.301453 0 0 1 83.382805 84.601851 211.301453 211.301453 0 0 1-3.494601 206.343996 211.301453 211.301453 0 0 1-81.26979 79.156775 206.181456 206.181456 0 0 1-52.175205 20.236178 212.926849 212.926849 0 0 1-105.081838-1.462857A211.301453 211.301453 0 0 1 300.739263 382.618739a212.5205 212.5205 0 0 1 10.808882-67.047577 219.428432 219.428432 0 0 1 16.985386-37.952992 212.195421 212.195421 0 0 1 135.3142-101.099618z"  horiz-adv-x="1024" />

    
    <glyph glyph-name="yuanpian" unicode="&#58894;" d="M1013.9 272.8l-128.6 233c-10.1 18.3-26.9 31.9-47 37.9-4.5 1.4-9.1 2.3-13.6 2.8l-1.3 108.2c-0.3 26.7-14.2 51.1-36.9 65.1-20.4 12.7-45.1 15-67.4 6.8V800.9c0 27.2-13.6 52.3-36.4 66.9-22.8 14.7-51.2 16.8-76 5.6l-558-253.1C18.3 606.6-0.2 574.8 2.3 541.6l30.2-381.9c2.1-27.2 17.8-51.1 42-63.9 11.8-6.2 24.5-9.4 37.3-9.4 13.4 0 26.9 3.5 39.1 10.3l39.1 22.1 11.6-112.9c2.7-26.1 18.3-48.9 41.7-61 11.2-5.7 23.4-8.6 35.7-8.6 13.1 0 26.4 3.3 38.1 10.3L380-18l27.6-54.3c9.8-19.5 27.6-34.3 48.6-40.5 7.4-2.3 15.1-3.3 22.7-3.3 14 0 28.1 3.6 40.3 10.9l464.9 270c18.3 10.6 31.4 27.5 37 47.9 5.5 20.4 3 41.7-7.2 60.1z m-852.8 127l22.4-217.2-61.5-34.7c-8.9-5.1-17.1-2-20.1-0.3-3 1.5-10.3 6.5-11 16.8L60.7 546.2c-0.6 8.8 4.2 17.1 12.2 20.7L631 820c3 1.5 6 2 8.6 2 5.4 0 9.5-2.1 11.3-3.5 2.9-1.8 9.5-7.3 9.5-17.5v-102.3L204.5 477.8c-29.3-14.2-46.7-45.6-43.4-78z m127.5-402.6c-8.2-4.5-15.4-1.7-18.1-0.3-2.9 1.4-9.4 5.7-10.3 15l-40.6 394c-0.9 7.9 3.3 15.6 10.6 19l507.5 245.8c3 1.5 5.7 2 8.3 2 4.5 0 8.3-1.8 10.1-3 2.7-1.7 8.9-6.5 9.1-16l1.5-121.6-456.6-237.5c-38.8-20.2-54.2-68.4-34.4-107.4l77.6-152.7-64.7-37.3z m536.9 488.7c3.5-1.9 6.5-4.9 8.5-8.7l128.6-233c5.6-10.1 2-23.1-8-29L489.9-54.6c-5.1-2.9-11.2-3.6-16.9-2-5.7 1.7-10.4 5.6-13.1 10.9L431 10.9l-26.9 52.9-76.2 149.7c-5.3 10.6-1.2 23.4 9.2 28.9 0 0 402.4 206.3 430.3 223.9 45.7 29 58.1 19.6 58.1 19.6zM690.3 125.8c-2.4 0-4.7 0.6-6.9 1.7-7.4 3.9-10.3 13-6.3 20.4L804 391.1c3.9 7.4 13 10.3 20.4 6.3 7.4-3.9 10.3-13 6.3-20.4L703.8 133.8c-2.7-5-8-8-13.5-8zM483.4 26.1c-2.3 0-4.7 0.5-6.8 1.7-7.4 3.8-10.4 12.8-6.6 20.2l77.8 153.3c3.8 7.4 12.8 10.4 20.2 6.6 7.4-3.8 10.4-12.8 6.6-20.2L497 34.4c-2.7-5.3-8-8.3-13.6-8.3z"  horiz-adv-x="1024" />

    
    <glyph glyph-name="richangjiadiandiannao-copy" unicode="&#59024;" d="M900.33867042 138.96997849000002H126.58116971a58.39679231 58.39679231 0 0 0-58.39679231 58.3967923V719.78155708a58.39679231 58.39679231 0 0 0 58.39679231 58.39679232h773.75750071a58.39679231 58.39679231 0 0 0 58.39679231-58.39679232v-522.41478629a58.39679231 58.39679231 0 0 0-58.39679231-58.3967923z m35.03807513 561.69538825A54.75575196 54.75575196 0 0 1 880.04286445 754.8196322h-733.17172972A54.75283278 54.75283278 0 0 1 91.54309328 700.66536674v-484.45395055a54.75283278 54.75283278 0 0 1 55.33388111-54.15426546h733.17172973A54.75575196 54.75575196 0 0 1 935.37674555 216.21141619000002V700.66536674zM521.42524189 582.6834076499999l3.7695129 3.76659242a10.68077313 10.68077313 0 0 0 15.08389134 0l103.86161592-103.75942117a10.64281597 10.64281597 0 0 0 0-15.06637235l-3.76951292-3.76659243a10.67493346 10.67493346 0 0 0-15.08389134 0l-103.8616159 103.74774186a10.64865564 10.64865564 0 0 0 0 15.07805167zM605.65969508 370.24463504000005c-5.20607369-5.20023403-12.17573182-6.67475325-15.56274493-3.29065933l-180.154104 179.95555678 18.85340426 18.83296479 180.154104-179.95555549c3.38993358-3.38409392 1.91541436-10.34207143-3.29065933-15.54230675zM389.46309019 567.36592852l-27.43189254 27.40269423c-3.38701441 3.38409392-1.91249518 10.34207143 3.29357851 15.54230675s12.17281134 6.67475325 15.55982574 3.29065933l27.44649233-27.40269423zM862.44207226 214.64930203999995H164.53908497a29.19839615 29.19839615 0 0 0-29.160439 29.22467398V675.92848541a29.19839615 29.19839615 0 0 0 29.160439 29.22759447h697.90298729a29.19839615 29.19839615 0 0 0 29.15751851-29.22759447v-432.06326823A29.19839615 29.19839615 0 0 0 862.44207226 214.64930203999995zM871.14027427 658.4649246399999c0 16.14087406-16.01240019 26.27855602-32.11823629 26.27855732H182.05812189c-16.10583479 0-26.27855602-13.05752338-26.27855602-29.19839616v-394.17835069c0-16.14087406 11.03115415-26.49170433 27.13698894-26.49170435H838.73005358c16.10291561 0 32.41021939 10.35083157 32.41022069 26.49170435V658.4649246399999zM672.59117886-10.178349400000002H354.32865998a29.19839615 29.19839615 0 0 0-29.19839615 29.19839615v14.59919809a29.19839615 29.19839615 0 0 0 29.19839615 29.19839615h96.35470757v78.83567066h29.19839616v-78.83567066h67.15631142v78.83567066h29.19839616v-78.83567066h96.35470757a29.19839615 29.19839615 0 0 0 29.19839745-29.19839615v-14.59919809a29.19839615 29.19839615 0 0 0-29.19839745-29.19839615z m11.67935923 37.95791527a17.51903822 17.51903822 0 0 1-17.5190382 17.51903691H360.16833895a17.51903822 17.51903822 0 0 1-17.51903691-17.51903691v-2.91984014a17.51903822 17.51903822 0 0 1 17.51903691-17.51903691h306.58316094a17.51903822 17.51903822 0 0 1 17.5190382 17.51903691v2.91984014z"  horiz-adv-x="1024" />

    
    <glyph glyph-name="jiaju-" unicode="&#59440;" d="M119.2-123.2c-8.8 0-16 7.2-16 16v46.4c0 8.8 7.2 16 16 16s16-7.2 16-16v-46.4c0-8.8-7.2-16-16-16zM904.8-123.2c-8.8 0-16 7.2-16 16v46.4c0 8.8 7.2 16 16 16s16-7.2 16-16v-46.4c0-8.8-7.2-16-16-16zM1004-80H20c-8.8 0-16 7.2-16 16V875.2c0 8.8 7.2 16 16 16h984c8.8 0 16-7.2 16-16V-64c0-8.8-7.2-16-16-16z m-968 32h952V859.2H36V-48zM514.4-72H20c-4.8 0-8 3.2-8 8V875.2c0 4.8 3.2 8 8 8h494.4c4.8 0 8-3.2 8-8V-64c0-4.8-3.2-8-8-8z m-486.4 16h478.4V867.2H28V-56zM443.2 357.6c-4.8 0-8 3.2-8 8v80c0 4.8 3.2 8 8 8s8-3.2 8-8v-80c0-4.8-4-8-8-8zM1004-72H514.4c-4.8 0-8 3.2-8 8V170.4c0 4.8 3.2 8 8 8h489.6c4.8 0 8-3.2 8-8V-64c0-4.8-3.2-8-8-8z m-481.6 16h473.6V162.4H522.4V-56zM1004 632H514.4c-4.8 0-8 3.2-8 8V875.2c0 4.8 3.2 8 8 8h489.6c4.8 0 8-3.2 8-8V640c0-4-3.2-8-8-8z m-481.6 16h473.6V867.2H522.4V648zM1004 397.6H514.4c-4.8 0-8 3.2-8 8V640c0 4.8 3.2 8 8 8h489.6c4.8 0 8-3.2 8-8v-234.4c0-4.8-3.2-8-8-8z m-481.6 16h473.6V632H522.4v-218.4zM1004 162.4H514.4c-4.8 0-8 3.2-8 8V405.6c0 4.8 3.2 8 8 8h489.6c4.8 0 8-3.2 8-8v-234.4c0-4.8-3.2-8.8-8-8.8z m-481.6 16h473.6V397.6H522.4v-219.2zM717.6 690.4c-1.6 0-2.4 0-4 0.8-4 2.4-5.6 7.2-3.2 11.2l62.4 119.2c2.4 3.2 7.2 4.8 11.2 2.4 4-2.4 5.6-7.2 3.2-11.2l-62.4-119.2c-1.6-1.6-4-3.2-7.2-3.2zM824 690.4c-1.6 0-2.4 0-4 0.8-4 2.4-5.6 7.2-3.2 11.2l62.4 119.2c2.4 4 7.2 5.6 11.2 3.2 4-2.4 5.6-7.2 3.2-11.2l-62.4-119.2c-1.6-2.4-4-4-7.2-4zM616 690.4c-1.6 0-2.4 0-4 0.8-4 2.4-5.6 7.2-3.2 11.2L672 820.8c2.4 4 7.2 5.6 11.2 3.2 4-2.4 5.6-7.2 3.2-11.2L624 693.6c-2.4-1.6-4.8-3.2-8-3.2zM608.8 449.6c-4.8 0-8 3.2-8 8V581.6c0 4.8 3.2 8 8 8s8-3.2 8-8v-124.8c0-4-3.2-7.2-8-7.2zM690.4 449.6c-4.8 0-8 3.2-8 8V581.6c0 4.8 3.2 8 8 8s8-3.2 8-8v-124.8c0-4-3.2-7.2-8-7.2zM772 449.6c-4.8 0-8 3.2-8 8V581.6c0 4.8 3.2 8 8 8s8-3.2 8-8v-124.8c0-4-3.2-7.2-8-7.2zM853.6 449.6c-4.8 0-8 3.2-8 8V581.6c0 4.8 3.2 8 8 8s8-3.2 8-8v-124.8c0-4-4-7.2-8-7.2z"  horiz-adv-x="1024" />

    
    <glyph glyph-name="yunshu-" unicode="&#61068;" d="M951.2 163.2H72.8c-8.8 0-16 7.2-16 16V404.8c0 8.8 7.2 16 16 16h26.4l19.2 455.2c0 8.8 7.2 15.2 16 15.2h754.4c8.8 0 16-6.4 16-15.2l19.2-455.2h26.4c8.8 0 16-7.2 16-16v-224.8c0.8-9.6-6.4-16.8-15.2-16.8z m-862.4 32h845.6V388.8h-25.6c-8.8 0-16 6.4-16 15.2l-19.2 455.2H150.4l-19.2-455.2c0-8.8-7.2-15.2-16-15.2h-25.6v-193.6zM808.8 580.8H215.2c-2.4 0-4 0.8-5.6 2.4-1.6 1.6-2.4 4-2.4 5.6l8 193.6c0 4 4 8 8 8h577.6c4 0 8-3.2 8-8l8-193.6c0-2.4-0.8-4-2.4-5.6-1.6-0.8-3.2-2.4-5.6-2.4z m-585.6 16H800l-7.2 177.6H231.2l-8-177.6zM1004 24.8H20c-8.8 0-16 7.2-16 16V179.2c0 8.8 7.2 16 16 16h984c8.8 0 16-7.2 16-16v-138.4c0-8.8-7.2-16-16-16z m-968 32h952V163.2H36v-106.4zM207.2-123.2h-74.4c-31.2 0-56 24.8-56 56v108c0 8.8 7.2 16 16 16h154.4c8.8 0 16-7.2 16-16v-108c0-30.4-25.6-56-56-56z m-98.4 148v-92c0-13.6 10.4-24 24-24h74.4c13.6 0 24 10.4 24 24v92H108.8zM891.2-123.2h-74.4c-31.2 0-56 24.8-56 56v108c0 8.8 7.2 16 16 16h154.4c8.8 0 16-7.2 16-16v-108c0-30.4-24.8-56-56-56z m-98.4 148v-92c0-13.6 10.4-24 24-24h74.4c13.6 0 24 10.4 24 24v92H792.8zM264.8 244c-37.6 0-68.8 31.2-68.8 68.8 0 37.6 31.2 68.8 68.8 68.8 37.6 0 68.8-31.2 68.8-68.8 0-37.6-31.2-68.8-68.8-68.8z m0 121.6c-28.8 0-52.8-24-52.8-52.8s24-52.8 52.8-52.8 52.8 24 52.8 52.8-24 52.8-52.8 52.8zM759.2 244c-37.6 0-68.8 31.2-68.8 68.8 0 37.6 31.2 68.8 68.8 68.8 37.6 0 68.8-31.2 68.8-68.8 0-37.6-30.4-68.8-68.8-68.8z m0 121.6c-28.8 0-52.8-24-52.8-52.8s24-52.8 52.8-52.8c28.8 0 52.8 24 52.8 52.8s-23.2 52.8-52.8 52.8z"  horiz-adv-x="1024" />

    
    <glyph glyph-name="huangguan1" unicode="&#58895;" d="M186.997713 29.407183L96.433117 570.007278l245.184301-204.225439 224.932418 358.162496 200.641538-358.219383 275.334574 204.282326-83.965668-540.600095H186.997713zM60.821662 626.496375a59.902336 59.902336 0 1 0 0 119.747785 59.902336 59.902336 0 0 0 0-119.747785zM569.8493 776.223772A59.902336 59.902336 0 1 0 569.8493 895.971556a59.902336 59.902336 0 0 0 0-119.747784z m508.970751-149.727397a59.902336 59.902336 0 1 0 0 119.747785 59.902336 59.902336 0 0 0 0-119.747785zM213.279649-105.984612a28.443654 28.443654 0 1 0 0 56.887309h720.193328a28.443654 28.443654 0 0 0 0-56.887309H213.222762z"  horiz-adv-x="1138" />

    
    <glyph glyph-name="zixun" unicode="&#58909;" d="M923.936 282.32a36.16 36.16 0 0 0-36.08 36.944V758.112h-667.36a36.944 36.944 0 0 0 0 73.888h703.424A36.16 36.16 0 0 0 960 795.056v-475.792a36.624 36.624 0 0 0-36.064-36.944zM255.232-64a34.608 34.608 0 0 0-25.856 11.104 36.8 36.8 0 0 0 0 52.592l219.552 219.776a37.568 37.568 0 0 0 25.856 11.104h273.36V629.824H137.888v-399.232h99.008a37.04 37.04 0 0 0 0-74.064h-136A36.624 36.624 0 0 0 64 193.488V666.848a36.624 36.624 0 0 0 36.944 37.04h684.88a36.224 36.224 0 0 0 26.592-11.104 34.096 34.096 0 0 0 10.336-26.672l-1.472-473.296a37.44 37.44 0 0 0-36.944-36.288H490.304L281.84-52.144a36.56 36.56 0 0 0-26.608-11.856z"  horiz-adv-x="1024" />

    
    <glyph glyph-name="tuiguang-kuai" unicode="&#58882;" d="M77.71 397.6L959.33 831.33 380.11 225.8c-7.14-7.47-18.41-9.44-27.73-4.85L77.71 356.08c-17.39 8.55-17.39 32.97 0 41.52zM959.33 831.33v-871.42c0-17.26-18.46-28.48-34.14-20.76L605.16 96.59c-11.72 5.77-16.42 19.82-10.47 31.31L959.33 831.33zM562.09 67.79l-50.61-99.59c-9.07-17.85-35.3-16.86-42.95 1.62l-81.97 197.96 175.53-99.99z"  horiz-adv-x="1024" />

    
    <glyph glyph-name="caidan" unicode="&#58962;" d="M376.832 421.888H130.048c-33.792 0-61.44 27.648-61.44 61.44V730.112c0 33.792 27.648 61.44 61.44 61.44h247.296c33.792 0 61.44-27.648 61.44-61.44v-247.296c-0.512-33.792-27.648-60.928-61.952-60.928zM130.048 730.112v-247.296h247.296V730.112H130.048zM739.84 370.688c-16.384 0-31.744 6.144-43.52 17.92L521.728 563.2c-11.776 11.776-17.92 27.136-17.92 43.52s6.144 31.744 17.92 43.52L696.32 824.832c11.776 11.776 27.136 17.92 43.52 17.92s31.744-6.144 43.52-17.92L957.952 650.24c11.776-11.776 17.92-27.136 17.92-43.52s-6.144-31.744-17.92-43.52L783.36 388.608c-11.776-11.776-27.136-17.92-43.52-17.92z m0 411.136l-174.592-174.592 174.592-174.592 174.592 174.592-174.592 174.592zM376.832-64.512H130.048c-33.792 0-61.44 27.648-61.44 61.44v247.296c0 33.792 27.648 61.44 61.44 61.44h247.296c33.792 0 61.44-27.648 61.44-61.44v-247.296c-0.512-34.304-27.648-61.44-61.952-61.44z m-246.784 308.224v-247.296h247.296v247.296H130.048zM863.232-64.512h-247.296c-33.792 0-61.44 27.648-61.44 61.44v247.296c0 33.792 27.648 61.44 61.44 61.44h247.296c33.792 0 61.44-27.648 61.44-61.44v-247.296c0-34.304-27.136-61.44-61.44-61.44z m-246.784 308.224v-247.296h247.296v247.296h-247.296z"  horiz-adv-x="1024" />

    
    <glyph glyph-name="boli" unicode="&#58926;" d="M837.818182-128H0V896h837.818182v-1024zM46.545455-81.454545h744.727272V849.454545H46.545455v-930.90909z m977.454545 46.545454H791.272727V802.909091h232.727273v-837.818182z m-186.181818 46.545455h139.636363V756.363636h-139.636363v-744.727272zM225.908364 297.728l-32.907637 32.907636 418.909091 418.909091 32.907637-32.907636z m0-279.272727l-32.907637 32.907636 418.909091 418.909091 32.907637-32.907636z"  horiz-adv-x="1024" />

    
    <glyph glyph-name="gongyejichulingjian" unicode="&#58952;" d="M546.133333 42.666667l-165.973333 287.36a160.426667 160.426667 0 0 1 25.173333 85.333333v1.066667l251.946667 125.226666 121.386667-121.6 165.973333 165.973334L853.333333 677.12l-74.666666-75.306667-53.333334 53.333334V725.333333h106.666667V853.333333H597.333333v-174.08l-262.613333-130.56A160 160 0 1 1 245.333333 256h4.906667l123.52-213.333333H42.666667v-128h938.666666v128zM640 652.8V810.666667h149.333333v-42.666667h-106.666666v-130.56l96-96 74.666666 75.306667 30.08-30.08-106.666666-105.6-113.066667 113.066666-264.96-132.693333a158.72 158.72 0 0 1-30.08 56.533333zM128 416a117.333333 117.333333 0 1 0 117.333333-117.333333A117.546667 117.546667 0 0 0 128 416z m167.04-152.106667a162.986667 162.986667 0 0 1 55.466667 31.786667L496.853333 42.666667h-73.813333zM938.666667-42.666667H85.333333v42.666667h853.333334zM320 416a74.666667 74.666667 0 1 1-74.666667-74.666667 74.666667 74.666667 0 0 1 74.666667 74.666667z m-106.666667 0a32 32 0 1 0 32-32 32 32 0 0 0-32 32z"  horiz-adv-x="1024" />

    
    <glyph glyph-name="shouji" unicode="&#58902;" d="M760.32-128H263.68c-56.32 0-102.4 46.08-102.4 102.4V793.6c0 56.32 46.08 102.4 102.4 102.4h494.08c56.32 0 102.4-46.08 102.4-102.4v-819.2c2.56-56.32-43.52-102.4-99.84-102.4zM263.68 844.8c-28.16 0-51.2-23.04-51.2-51.2v-819.2c0-28.16 23.04-51.2 51.2-51.2h494.08c28.16 0 51.2 23.04 51.2 51.2V793.6c0 28.16-23.04 51.2-51.2 51.2H263.68zM593.92 734.72h-161.28c-15.36 0-25.6 10.24-25.6 25.6s10.24 25.6 25.6 25.6h161.28c15.36 0 25.6-10.24 25.6-25.6s-12.8-25.6-25.6-25.6zM186.88 133.12h647.68v-51.2H186.88zM512 7.68m-43.52 0a43.52 43.52 0 1 1 87.04 0 43.52 43.52 0 1 1-87.04 0Z"  horiz-adv-x="1024" />

    
    <glyph glyph-name="trending-" unicode="&#59114;" d="M85.333333 42.66666699999996c-25.6 0-42.666667 17.066667-42.666666 42.666666V682.666667c0 25.6 17.066667 42.666667 42.666666 42.666666s42.666667-17.066667 42.666667-42.666666v-597.333334c0-25.6-17.066667-42.666667-42.666667-42.666666zM938.666667 42.66666699999996H85.333333c-25.6 0-42.666667 17.066667-42.666666 42.666666s17.066667 42.666667 42.666666 42.666667h853.333334c25.6 0 42.666667-17.066667 42.666666-42.666667s-17.066667-42.666667-42.666666-42.666666zM640 213.33333300000004c-25.6 0-42.666667 17.066667-42.666667 42.666667V512c0 25.6 17.066667 42.666667 42.666667 42.666667s42.666667-17.066667 42.666667-42.666667v-256c0-25.6-17.066667-42.666667-42.666667-42.666667zM469.333333 213.33333300000004c-25.6 0-42.666667 17.066667-42.666666 42.666667V682.666667c0 25.6 17.066667 42.666667 42.666666 42.666666s42.666667-17.066667 42.666667-42.666666v-426.666667c0-25.6-17.066667-42.666667-42.666667-42.666667zM810.666667 213.33333300000004c-25.6 0-42.666667 17.066667-42.666667 42.666667V597.333333c0 25.6 17.066667 42.666667 42.666667 42.666667s42.666667-17.066667 42.666666-42.666667v-341.333333c0-25.6-17.066667-42.666667-42.666666-42.666667zM298.666667 213.33333300000004c-25.6 0-42.666667 17.066667-42.666667 42.666667v110.933333c0 25.6 17.066667 42.666667 42.666667 42.666667s42.666667-17.066667 42.666666-42.666667V256c0-25.6-17.066667-42.666667-42.666666-42.666667z"  horiz-adv-x="1024" />

    
    <glyph glyph-name="icon_xinyong_xianxing_jijin-" unicode="&#58903;" d="M512.030592 358.394163c-3.929553 0-7.846306 0.895989-11.455862 2.700768l-486.394164 243.197081a25.625292 25.625292 0 0 0 0 45.797851l486.394164 243.197082a25.650892 25.650892 0 0 0 22.898925 0l486.394163-243.197082a25.599693 25.599693 0 0 0 0.0128-45.797851l-486.394163-243.197081A25.574093 25.574093 0 0 0 512.030592 358.394163zM82.877342 627.190938L512.030592 412.614313 941.183842 627.190938 512.030592 841.767563 82.877342 627.190938zM512.030592 115.197082c-3.929553 0-7.846306 0.895989-11.455862 2.700767l-486.394164 243.197082a25.599693 25.599693 0 0 0 0 45.79785l243.197082 121.598541a25.612493 25.612493 0 0 0 22.898925-45.81065L82.877342 383.993856 512.030592 169.417231 941.183842 383.993856l-197.412031 98.699616a25.599693 25.599693 0 0 0 22.898925 45.81065l243.197082-121.598541a25.638092 25.638092 0 0 0 0.0128-45.81065l-486.394163-243.197082A25.574093 25.574093 0 0 0 512.030592 115.197082zM512.030592-128c-3.929553 0-7.846306 0.895989-11.455862 2.700768l-486.394164 243.197081a25.599693 25.599693 0 0 0 0 45.797851l243.197082 121.59854a25.612493 25.612493 0 0 0 22.898925-45.81065L82.877342 140.796774 512.030592-73.779851 941.183842 140.796774l-197.412031 98.699616a25.599693 25.599693 0 0 0 22.898925 45.81065l243.197082-121.598541a25.625292 25.625292 0 0 0 0.0128-45.81065l-486.394163-243.197081A25.574093 25.574093 0 0 0 512.030592-128zM326.445619 591.99136a25.625292 25.625292 0 0 0-11.468662 48.511418l217.597389 108.798694a25.599693 25.599693 0 1 0 22.898925-45.81065l-217.597389-108.798694a25.394895 25.394895 0 0 0-11.430263-2.700768zM480.043776 515.192282a25.625292 25.625292 0 0 0-11.468662 48.511418l217.597388 108.798694a25.599693 25.599693 0 0 0 22.898926-45.81065l-217.597389-108.798695a25.394895 25.394895 0 0 0-11.430263-2.700767z"  horiz-adv-x="1024" />

    


  </font>
</defs>
</svg>
